<?xml version="1.0" standalone="no"?>
<!DOCTYPE svg PUBLIC "-//W3C//DTD SVG 1.1//EN" "http://www.w3.org/Graphics/SVG/1.1/DTD/svg11.dtd" >
<!--
2013-9-30: Created.
-->
<svg>
<metadata>
Created by iconfont
</metadata>
<defs>

<font id="iconfont" horiz-adv-x="1024" >
  <font-face
    font-family="iconfont"
    font-weight="500"
    font-stretch="normal"
    units-per-em="1024"
    ascent="896"
    descent="-128"
  />
    <missing-glyph />
    
    <glyph glyph-name="hun" unicode="&#58942;" d="M803.84 523.264q7.168-29.696 32.256-48.128t52.736-28.672 49.664-13.824 23.04-3.584l-29.696-55.296q-2.048 0-23.04 3.072t-51.2 11.776-64 25.088-61.44 44.032q-14.336 12.288-23.552 30.72t-16.384 38.912l-136.192 0 0-60.416q0-21.504 16.896-26.112t51.712 12.8l30.72-48.128q-59.392-20.48-106.496-21.504-20.48 0-39.424 3.072t-33.792 13.312-24.064 27.648-9.216 45.056l0 161.792q0 21.504 4.096 38.4t16.896 29.696 36.352 19.968 62.464 8.192q54.272 2.048 118.784 4.608t120.832 4.608q65.536 2.048 132.096 4.096l0-69.632-144.384 0 0-24.576q0-11.264 0.512-26.624t2.56-31.744l130.048 0 0-64.512-120.832 0zM676.864 591.872q-3.072 17.408-5.12 32.256t-3.072 26.112q-1.024 13.312-1.024 24.576-56.32 0-82.944-16.896t-28.672-66.048l120.832 0zM898.048 370.688q18.432 0 31.744-11.776t13.312-30.208l0-155.648q0-20.48-3.072-40.448t-11.264-35.328-24.064-24.576-40.448-9.216l-289.792 0-19.456 0-102.4 0 0 307.2 445.44 0zM574.464 312.32l0-52.224 260.096 0 0 52.224-260.096 0zM792.576 137.216q17.408 1.024 26.624 2.56t12.8 7.168 3.072 16.896-0.512 31.744l-260.096 0 0-58.368 218.112 0zM356.352 277.504q-9.216-46.08-41.984-81.92 48.128-26.624 132.096-48.128l-37.888-61.44q-99.328 19.456-162.816 50.176-38.912-25.6-79.872-41.984t-70.656-24.576l-10.24 60.416q13.312 4.096 28.672 11.264 13.312 6.144 30.208 14.848t34.304 20.992q-52.224 40.96-69.632 90.112t-11.264 101.376q4.096 36.864 9.216 83.968t10.24 96.256l-51.2 0 0 62.464 57.344 0q2.048 25.6 4.096 47.104t4.096 37.888q2.048 18.432 3.072 34.816l134.144 0q-2.048-16.384-5.12-34.816-2.048-16.384-5.632-37.888t-7.68-47.104l169.984 0 0-62.464-21.504 0q-3.072-22.528-7.168-55.296t-9.728-69.632-11.776-74.752-13.312-71.68zM240.64 548.864q-6.144-52.224-12.8-102.4t-9.728-82.944q-3.072-33.792 3.584-62.464t25.088-52.224q15.36 24.576 19.456 53.248 3.072 23.552 6.656 56.32t6.656 67.072 5.12 67.072 4.096 56.32l-48.128 0z"  horiz-adv-x="1024" />

    
    <glyph glyph-name="jiaoyin" unicode="&#58884;" d="M355.064966 737.093731c0-87.81145-71.144689-158.954184-158.959855-158.954184-87.76823 0-158.914874 71.143711-158.914874 158.954184 0 87.764514 71.146645 158.906269 158.914874 158.906269C283.920179 896 355.064966 824.858244 355.064966 737.093731zM569.619936 816.522908c0-43.903818-35.572882-79.476114-79.480417-79.476114s-79.479439 35.571318-79.479439 79.476114c0 43.905774 35.571905 79.477092 79.479439 79.477092S569.619936 860.428682 569.619936 816.522908zM800.050885 796.689106c0-43.905774-35.571905-79.477092-79.479439-79.477092s-79.480417 35.571318-79.480417 79.477092 35.572882 79.477092 79.480417 79.477092C764.479078 876.167078 800.050885 840.594783 800.050885 796.689106zM986.808884 693.373649c0-43.905774-35.572882-79.477092-79.480417-79.477092-43.907534 0-79.479439 35.571318-79.479439 79.477092s35.571905 79.477092 79.479439 79.477092C951.235024 772.850741 986.808884 737.279325 986.808884 693.373649zM284.478234 488.745065c0 0 50.658275 140.050605 244.353489 163.88897 0 0 299.017305 20.858875 350.513983-273.953799 25.142907-144.055071 14.667168-456.095496-216.417567-503.585458-55.780807-11.45456-217.534558 2.79282-196.674802 148.802209 7.356515 51.635238 55.780807 135.674754 0 208.585233C427.514294 283.139224 233.81996 298.038337 284.478234 488.745065"  horiz-adv-x="1024" />

    
    <glyph glyph-name="jingshi" unicode="&#58881;" d="M527.521137 847.441051c-246.731527 0-446.746141-200.00622-446.746141-446.727391s200.014615-446.727391 446.746141-446.727391 446.746141 200.00622 446.746141 446.727391S774.252663 847.441051 527.521137 847.441051zM527.521137 105.184877c-31.452636 0-56.950404 25.496697-56.950404 56.948013s25.497767 56.948013 56.950404 56.948013 56.950404-25.496697 56.950404-56.948013S558.973773 105.184877 527.521137 105.184877zM584.47154 346.812029c0-31.451316-25.497767-56.948013-56.950404-56.948013s-56.950404 25.496697-56.950404 56.948013L470.570733 589.861578c0 31.450293 25.497767 56.94699 56.950404 56.94699s56.950404-25.496697 56.950404-56.948013L584.47154 346.812029z"  horiz-adv-x="1024" />

    
    <glyph glyph-name="dianpu" unicode="&#58880;" d="M829.220317 771.575176l-7.074116 10.656711L211.680609 782.231887l-7.141654-9.141194C48.983109 574.501752 70.507332 453.583798 97.154225 399.139815c26.740014-54.537104 80.878029-89.831958 137.977491-89.831958l5.146207 0c72.043826 2.867304 119.953999 38.642089 145.190777 64.548108 22.793122-25.90602 65.699328-60.541865 132.855844-60.541865 70.02382 0 113.703645 37.70167 135.579885 63.877843 30.546713-24.907273 90.183975-65.721841 152.687518-65.721841 40.980343 0 76.085886 16.799618 104.681154 49.907667C1017.364371 484.917434 836.949348 759.933021 829.220317 771.575176zM874.641809 392.396227c-19.22383-22.49841-41.49916-33.236985-68.14503-33.236985-60.246129 0-122.821303 54.56064-136.7792 67.51979L669.717579 590.245318c0.023536 0.458441 0.258896 0.799202 0.258896 1.245364 0 13.252839-10.714016 23.967878-23.920806 23.967878-13.227256 0-23.919782-10.715039-23.919782-23.967878l-0.258896 0 0-177.851641c-13.063527-17.811668-46.172599-52.634778-103.552447-52.634778-64.784492 0-98.525967 44.292785-107.666138 58.367339l0 172.120103c0 13.252839-10.715039 23.967878-23.898293 23.967878-13.228279 0-23.943318-10.715039-23.943318-23.967878l0-171.250292c-11.725042-15.249309-52.070936-60.389392-124.465756-63.37233l-3.219321 0 0 0.047072c-31.933293 0-73.688279 19.585057-95.000678 63.232137-21.358447 43.540655-36.843116 141.948943 94.953605 314.397526l561.097208 0C845.996398 655.826965 940.480306 468.774779 874.641809 392.396227zM831.288418 282.16773c-13.277398 0-24.086581-10.761088-24.13263-24.037463l0-0.045025c0-0.048095 0-0.048095 0-0.095167 0 0 0-0.023536 0-0.059352l0-173.505659c0-26.693965-21.641903-48.312332-48.263214-48.312332L552.089555 36.112732c-0.022513 0-0.022513 0-0.046049 0L264.081049 36.112732c-26.623357 0-48.26526 21.618367-48.26526 48.312332l0 173.634596c-0.023536 13.323447-10.80816 24.108071-24.109094 24.108071-13.299911 0-24.084535-10.784624-24.131607-24.108071l0-178.452321c0-50.730405 41.026392-91.804892 91.664699-91.804892l504.492002 0c50.637284 0 91.662653 41.074487 91.662653 91.804892L855.394443 258.130268C855.325881 271.407666 844.562746 282.16773 831.288418 282.16773z"  horiz-adv-x="1024" />

    
    <glyph glyph-name="bulb" unicode="&#58897;" d="M515.107 680.105c-151.36 0-274.439-123.083-274.439-274.439 0-105.339 59.879-200.703 154.126-246.718l0-118.645c0-33.266 19.964-62.1 48.795-74.849l0-25.504c0-28.832 23.283-52.117 52.115-52.117l39.92 0c28.829 0 52.117 23.284 52.117 52.117l0 25.5c28.828 12.751 48.789 41.584 48.789 74.852l0 118.645c93.695 46.015 154.127 141.378 154.127 246.718-1.108 151.359-124.19 274.443-275.548 274.443l0 0zM535.061-73.361l-39.918 0c-7.203 0-13.308 6.102-13.308 13.307l0 18.299 66.538 0 0-18.299c0-7.204-6.102-13.307-13.312-13.307l0 0zM553.362-2.945l-76.512 0c-23.836 0-43.247 19.403-43.247 43.247l0 46.569 163.561 0 0-46.569c-0.557-23.843-19.964-43.247-43.803-43.247l0 0zM515.107 279.81l-41.584 75.954 82.609 0-41.026-75.954zM608.25 189.44l-11.641-4.99 0-58.772-62.098 0 0 114.211c3.328 2.221 5.548 5.545 7.763 8.869l56.551 104.234c4.989 8.316 4.434 18.849-0.553 27.166-5.542 8.871-15.526 14.419-26.612 14.419l-113.657 0c-11.091 0-21.068-5.541-26.611-14.419-4.991-8.316-5.547-18.294-0.554-27.166l57.108-104.786c2.214-3.322 4.434-6.65 7.759-8.871l0-113.657-62.096 0 0 58.772-11.643 4.99c-86.487 37.141-141.93 122.527-141.93 216.222 0 129.738 105.894 235.63 235.63 235.63 129.733 0 235.632-105.894 235.632-235.63-0.553-93.695-56.551-178.528-143.042-216.222l0 0zM47.12 460.507l102.928 0 0-39.75-102.928 0 0 39.75zM254.01 649.982l-72.78 72.78 28.112 28.105 72.78-72.78-28.112-28.105zM742.348 678.086l72.78 72.78 28.106-28.105-72.779-72.78-28.107 28.105zM873.369 460.507l102.927 0 0-39.75-102.927 0 0 39.75zM491.831 856.237l39.75 0 0-102.927-39.75 0 0 102.927zM491.831 856.237z"  horiz-adv-x="1024" />

    
    <glyph glyph-name="warn" unicode="&#58917;" d="M510.977-6.393c-210.599 0-381.325 170.722-381.325 381.325 0 210.599 170.725 381.324 381.325 381.324 210.599 0 381.324-170.725 381.324-381.324 0-210.604-170.724-381.325-381.324-381.325l0 0zM569.3 560.723c0 29.19-29.965 52.85-59.182 52.85-29.218 0-58.321-23.66-58.321-52.85l15.35-220.395c0-29.19 13.427-52.879 42.588-52.879 29.218 0 44.216 23.689 44.216 52.879l15.35 220.395zM511.894 258.858c-33.001 0-59.698-26.812-59.698-59.809 0-33 26.698-59.725 59.698-59.725 32.998 0 59.811 26.726 59.811 59.725s-26.814 59.809-59.811 59.809l0 0z"  horiz-adv-x="1024" />

    
    <glyph glyph-name="feiji" unicode="&#59052;" d="M437.51303-98.130579l40.420595 0c0 0 0.511653 179.122587 0 192.681394s5.348821 28.418236 11.256368 35.304064c5.90857 6.885827 448.719768 522.910491 448.719768 522.910491S815.694255 28.21192 814.067198 19.931327c-1.257643-6.393617-5.434779-9.121751-11.234879-7.245008-6.997368 2.2656-262.47804 81.864496-262.47804 81.864496l-12.982686-39.397289c0 0 242.571664-76.187193 266.762623-83.399455 26.605961-7.930623 54.235229 9.209756 59.863413 39.397289 4.644787 24.90625 131.175575 668.910703 133.031852 680.496575 1.853208 11.583826 6.979972 27.970028-12.515035 37.379329-14.432711 6.966669-31.828916-8.045233-31.828916-8.045233l-5.458315 10.576893c0 0-820.094984-437.890118-849.344145-453.665407s-27.951609-49.001017-3.41068-56.965409c24.540929-7.963369 272.199449-88.344071 272.199449-88.344071l12.621459 38.885636-244.910942 78.794577 765.433036 409.66324c0 0-409.322479-476.860688-426.207032-496.303506s-26.383904-39.653115-26.350135-65.23577C437.290973 72.803511 437.51303-98.130579 437.51303-98.130579z"  horiz-adv-x="1024" />

    
    <glyph glyph-name="wode" unicode="&#58934;" d="M690.794617 472.279738c0-98.762351-80.052221-178.729637-178.867784-178.729637-98.709139 0-178.76136 79.967286-178.76136 178.729637 0 98.857519 80.052221 178.992627 178.76136 178.992627C610.741373 651.272365 690.794617 571.137257 690.794617 472.279738zM838.859861 86.921044c0-95.757924-146.441257-138.193409-326.933027-138.193409-180.447768 0-326.787718 42.435485-326.787718 138.193409 0 95.937003 146.33995 173.628456 326.787718 173.628456C692.417581 260.549499 838.859861 182.858046 838.859861 86.921044z"  horiz-adv-x="1024" />

    
    <glyph glyph-name="fenxiang2" unicode="&#59034;" d="M1001.602187 472.433161 798.222049 263.85353c-24.697588-17.798262-58.694268-11.698858-75.992579 13.898643-17.19832 25.49751-11.298897 60.694073 13.398692 78.592325l115.888683 118.7884c-107.489503 3.799629-295.271165-12.59877-381.662728-154.784884-52.994825-87.191485-7.399277-242.976272 18.798164-315.269212 19.498096-53.894737-82.491944-62.893858-102.589981-5.699443C360.364808 73.072161 309.269798 252.554633 400.960844 393.440875c99.590274 153.08505 314.56928 184.781955 440.456987 185.681867L735.728152 687.512157c-24.597598 17.798262-30.597012 52.994825-13.398692 78.592325 17.298311 25.49751 51.195 31.696905 75.992579 13.898643l203.380139-208.479641c16.098428-11.598867 23.297725-30.697002 22.197832-49.495166C1024.799922 503.030173 1017.600625 484.032028 1001.602187 472.433161L1001.602187 472.433161zM331.167659 712.909677 166.983693 712.909677c-36.896397 0-66.793477-29.59711-66.793477-66.093546l0-693.532272c0-36.496436 29.89708-66.093546 66.793477-66.093546l668.034762 0c36.896397 0 66.793477 29.59711 66.793477 66.093546L901.811932 152.364418c14.098623 37.096377 95.790645 34.296651 100.190216-8.199199l0 0 0-257.074895c0-54.694659-44.895616-99.090323-100.190216-99.090323L100.290206-212C44.895616-211.90001 0-167.504345 0-112.809687L0 712.909677C0 767.604336 44.895616 812 100.290206 812l166.983693 0 33.396739 0 15.198516 0c3.299678-0.999902 6.799336-1.799824 10.898936-2.099795C368.963968 806.800508 373.96348 723.808612 331.167659 712.909677L331.167659 712.909677z"  horiz-adv-x="1025" />

    
    <glyph glyph-name="lvyou" unicode="&#59025;" d="M223.876883 10.762503c10.447956-17.022699 40.919968-65.63179 63.280232-101.297081 13.520945-21.540595 24.063045-38.352493 25.384134-40.561811 6.436596-10.806113 17.282618-17.242709 29.950126-17.626449l0.884137 0c11.912307 0 23.769356 5.616928 35.641755 17.170055 27.725458 32.420387 27.028587 48.510854 26.694989 56.242955l-0.049119 1.635243c0.201591 8.3072 0.157589 28.747741 0.10847 51.560306-0.074701 26.586518-0.147356 56.58167 0.166799 74.139557l104.636129 100.69333c29.984918-82.275865 89.277326-242.266719 93.362364-252.930593 8.631588-21.903869 25.75764-25.743314 32.695656-26.396183 13.919011-1.24741 28.457122 4.443196 40.2364 16.21224 1.650593 1.753947 40.458457 43.085284 57.33994 63.643506 18.62315 22.404266 17.821901 42.339294 17.48421 50.818409-0.049119 2.714831-2.956332 50.984185-8.082072 136.093585-4.865821 80.479963-10.674107 177.097464-13.821797 231.701083l180.764993 180.799786c44.335764 44.199665 50.950416 90.240257 50.940183 113.76402 0 25.958208-7.615445 49.039903-20.342304 61.693084-12.633738 12.706393-36.721343 20.606317-62.87091 20.606317-23.479761 0-69.422116-6.545066-113.356744-50.41011L584.326259 517.621413c-46.732347 2.965541-124.137275 8.008394-196.133006 12.701277-91.584881 5.980201-170.679287 11.131525-174.234253 11.219529-1.24741 0.068562-2.807952 0.11768-4.536316 0.11768-16.4783 0-31.413454-5.725398-45.633317-17.519002-20.484543-16.954137-61.899792-55.870472-63.794955-57.662281-11.637038-11.694343-17.499559-26.341948-16.10377-40.2364 0.912789-8.695033 5.597485-24.471344 26.489304-32.612769 10.133801-3.976568 170.198334-63.893192 254.974136-95.15008l-100.767008-103.948467c-4.287653-0.049119-9.202593-0.334621-14.925944-0.049119-18.575054 0-42.8796 0.337691-64.301492 0.648776-22.153556 0.314155-41.067324 0.623193-47.877427 0.38681l0.2415-6.151094-1.812275 6.151094-1.453095 0.020466c-10.123568 0-25.448602-3.098571-54.579059-27.496238l-2.592035-2.426259c-11.744485-11.813047-14.504342-23.676236-14.759145-31.555693-0.39295-11.886725 4.600785-22.595624 13.992689-30.137391C83.050508 98.615387 160.980391 48.878612 223.876883 10.762503L223.876883 10.762503zM250.615874 52.074398c-52.639894 31.865755-109.113093 67.74287-132.927475 83.306334 10.920724 8.455579 16.355503 10.591219 17.59268 10.998495l8.911974 0.025583c8.214079 0 21.372773-0.191358 36.3243-0.38374l4.139274-0.072655c29.734208-0.431835 64.977897-0.934279 83.435271-0.550539 11.429307 0.2415 22.094204 4.876054 30.03813 13.085016l109.103884 112.555495c10.18292 10.482749 14.312984 25.267477 11.07115 39.521109-3.25002 14.262842-13.388938 25.781176-27.112498 30.824029-71.051219 26.115797-211.383338 78.579683-252.381078 94.069469 12.226462 11.405771 41.257659 38.32691 56.341193 50.818409 7.518231 6.205329 12.079106 6.205329 14.263865 6.205329 0.796132 0 1.512447-0.023536 2.641153-0.082888 6.127558-0.265036 94.742804-6.039553 172.938748-11.146874 73.463152-4.79112 152.561651-9.942443 199.00645-12.892635 12.456706-0.840134 24.387433 3.755534 33.157167 12.520151l182.502567 182.63969c31.403221 31.340799 62.74402 36.024471 78.618569 36.024471 17.507746 0 27.063379-5.28333 28.098965-6.195096 7.66968-7.827269 16.306384-59.135842-30.598902-105.897865L693.056636 404.687294c-8.655124-8.670473-13.232372-20.650319-12.520151-32.892131 2.951215-51.726082 8.524141-144.145981 13.326517-223.75511l0.648776-10.881838c3.485381-57.706283 7.830339-129.538285 8.04728-135.013997 0.201591-5.355985 0.373507-9.584286-6.353708-17.675568-12.269441-14.959713-38.316677-43.109844-50.444902-56.125275-14.959713 40.177048-66.892503 180.449815-92.183516 250.073522-4.983501 13.736862-16.473183 23.896246-30.702256 27.210735-14.022365 3.26537-29.15604-0.88823-39.578414-10.905374L370.012172 85.718659c-8.264221-7.973602-12.942777-18.663058-13.19758-30.093389-0.36839-17.842367-0.300852-49.713238-0.226151-78.69634 0.049119-21.545712 0.093121-41.739637-0.098237-49.644677-0.025583-1.36509 0-2.926656 0.240477-4.394077 0-0.044002-1.295506-5.135974-9.824763-16.139585l-18.058284 28.821419c-22.910802 36.549427-54.299697 86.60138-63.810305 102.136192C261.46292 43.5697 256.465093 48.515339 250.615874 52.074398L250.615874 52.074398zM250.615874 52.074398"  horiz-adv-x="1024" />

    
    <glyph glyph-name="shaixuan" unicode="&#58898;" d="M923.554822 656.664166c0 34.089399-27.615964 61.703317-61.712527 61.703317L162.532235 718.367483c-34.095539 0-61.71662-27.613918-61.71662-61.703317 0-17.639752 7.487531-33.42732 19.396769-44.682665l-0.282433-0.258896c0 0 111.408369-115.462708 186.377828-188.641381 17.829064-17.402345 33.598212-32.41527 45.316092-42.914392 4.323469-3.877307 11.961426-11.496845 14.046924-17.189498 1.607614-4.396123 2.703575-15.251356 2.537799-20.445658-1.896186-61.60508-0.703011-180.159196-0.197498-221.821061l41.342594 0L409.35369 341.941228c0 0 0.975211 31.850405-1.175779 38.184671-3.606131 10.602476-24.636097 26.951839-30.463826 32.400944-16.905018 15.797801-42.909276 41.294498-71.406307 69.628824-70.926376 70.52217-157.298536 158.63395-157.298536 158.63395l0.072655 0.223081c-4.450359 3.804652-7.453762 9.326413-7.453762 15.655562 0 11.531638 9.364275 20.898982 20.904099 20.898982l699.305967 0c11.538801 0 20.88568-9.367345 20.88568-20.898982 0-6.347568-2.983961-11.851932-7.439436-15.655562l0.094144-0.223081c0 0-174.835957-180.234921-232.642524-232.564753-7.233752-6.550183-24.181749-18.823718-26.988678-28.203342-2.406816-8.051373-0.708128-12.383028-0.699941-34.534538 0.027629-83.359546 0.096191-288.778032 0.096191-440.591647 0-0.318248 0.004093-0.681522 0.013303-1.081635l42.459021 0c0.039909 0.683569 0.033769 1.081635 0.033769 1.081635s-1.471514 323.488579-1.471514 434.338223c0 6.062066-0.285502 18.057261 2.034333 23.654746 2.216481 5.358031 10.263761 12.886495 14.364149 16.986883C730.546993 437.834228 904.452765 611.725674 904.452765 611.725674l-0.294712 0.255827C916.065244 623.241962 923.554822 639.024413 923.554822 656.664166z"  horiz-adv-x="1024" />

    
    <glyph glyph-name="xin" unicode="&#58905;" d="M714.07688 703.734204c-78.336136 0-152.170748-35.124985-201.437825-92.215238-49.267077 57.091276-123.099642 92.215238-201.437825 92.215238-138.79409 0-246.201331-105.373932-246.201331-241.502309 0-166.860309 152.171772-300.780391 382.722658-507.156692l64.916499-57.092299 64.916499 57.092299C808.108486 161.451504 960.279235 295.371586 960.279235 462.231895 960.279235 598.360272 852.871993 703.734204 714.07688 703.734204L714.07688 703.734204zM540.268322 12.843908l-9.093099-8.131191-18.535145-16.305361-18.534122 16.305361-9.049097 8.131191c-108.544135 97.111758-202.224748 180.978864-264.211521 255.971859-60.151985 72.851215-86.993307 132.500756-86.993307 193.417151 0 47.977711 18.142196 92.172259 51.058886 124.455523 32.786731 32.17377 77.638241 49.901527 126.292358 49.901527 56.260351 0 111.86681-25.530466 148.763139-68.284199l52.67571-61.112869 52.677756 61.112869c36.895305 42.753733 92.499717 68.284199 148.760069 68.284199 48.65514 0 93.50665-17.727757 126.292358-49.901527 32.917714-32.283264 51.058886-76.477812 51.058886-124.455523 0-60.915371-26.841322-120.564913-86.992283-193.417151C742.449068 193.822772 648.767432 109.955666 540.268322 12.843908L540.268322 12.843908zM540.268322 12.843908"  horiz-adv-x="1024" />

    
    <glyph glyph-name="gengduo" unicode="&#58894;" d="M175.79019 272.024719c-61.737086 0-111.975281 50.242288-111.975281 111.974257 0 61.737086 50.238195 111.975281 111.975281 111.975281 61.730946 0 111.974257-50.238195 111.974257-111.975281C287.764448 322.267007 237.521137 272.024719 175.79019 272.024719L175.79019 272.024719zM511.708869 272.024719c-61.730946 0-111.975281 50.242288-111.975281 111.974257 0 61.737086 50.244334 111.975281 111.975281 111.975281 61.737086 0 111.975281-50.238195 111.975281-111.975281C623.683127 322.267007 573.445956 272.024719 511.708869 272.024719L511.708869 272.024719zM847.632665 272.024719c-61.737086 0-111.975281 50.242288-111.975281 111.974257 0 61.737086 50.238195 111.975281 111.975281 111.975281 61.730946 0 111.969141-50.238195 111.969141-111.975281C959.601806 322.267007 909.363611 272.024719 847.632665 272.024719L847.632665 272.024719zM847.632665 272.024719"  horiz-adv-x="1024" />

    
    <glyph glyph-name="weixinzhifu" unicode="&#58923;" d="M390.21952 264.90752c-61.26464-34.01984-70.35136 19.09888-70.35136 19.09888l-76.78208 178.46656c-29.54368 84.80512 25.56928 38.23744 25.56928 38.23744s47.2896-35.63392 83.17952-57.34784c35.87072-21.71392 76.75776-6.3744 76.75776-6.3744l501.9648 230.7776C837.94688 782.5472 684.96256 857.6 511.76576 857.6 229.11104 857.6 0 657.86752 0 411.47136c0-141.72544 75.8656-267.8656 194.0352-349.62176l-21.31072-122.01856c0 0-10.38848-35.6224 25.61536-19.10016 24.53376 11.26528 87.0784 51.63392 124.30976 76.20224 58.53056-20.31616 122.2976-31.5968 189.14432-31.5968 282.63168 0 511.79008 199.73248 511.79008 446.13376 0 71.36896-19.31008 138.76864-53.51552 198.59456C810.14144 514.2208 438.15808 291.48288 390.21952 264.90752L390.21952 264.90752 390.21952 264.90752zM390.21952 264.90752"  horiz-adv-x="1024" />

    
    <glyph glyph-name="shuben" unicode="&#58928;" d="M887.653147 34.049746c0-53.44012-43.324738-96.762811-96.764857-96.762811L230.594377-62.713065c-53.44012 0-96.763834 43.322691-96.763834 96.762811L133.830543 733.94923c0 53.439096 43.323715 96.763834 96.763834 96.763834l560.294936 0c53.44012 0 96.764857-43.323715 96.764857-96.763834L887.65417 34.049746zM831.814398 733.94923c0 22.602787-18.322297 40.925085-40.925085 40.925085L230.594377 774.874315c-22.602787 0-40.925085-18.322297-40.925085-40.925085l0-699.898461c0-22.602787 18.322297-40.924061 40.925085-40.924061l560.294936 0c22.602787 0 40.925085 18.321274 40.925085 40.924061L831.814398 733.94923zM329.266677-48.754145c-7.715729 0-13.959943 6.244214-13.959943 13.960966L315.306734 802.793178c0 7.716752 6.244214 13.959943 13.959943 13.959943 7.702426 0 13.959943-6.244214 13.959943-13.959943l0-837.586356C343.22662-42.50993 336.96808-48.754145 329.266677-48.754145zM727.498564 21.044548 498.527662 21.044548c-7.716752 0-13.959943 6.244214-13.959943 13.960966 0 7.714705 6.244214 13.95892 13.959943 13.95892l228.970902 0c22.030759 0 48.477085 26.39209 48.477085 67.236334l0 44.442188c0 7.714705 6.244214 13.95892 13.960966 13.95892 7.715729 0 13.95892-6.244214 13.95892-13.95892l0-44.442188C803.894512 58.397271 766.487553 21.044548 727.498564 21.044548zM779.396561 217.181647c-3.774977 0-7.265474 1.404999-9.910721 4.049223-2.52245 2.52245-4.048199 6.148024-4.048199 9.911744 0 3.6399 1.52575 7.265474 4.048199 9.911744 5.166673 5.030573 14.518668 5.166673 19.672038 0 2.65855-2.64627 4.199649-6.271844 4.199649-9.911744 0-3.76372-1.541099-7.253194-4.049223-9.911744C786.649755 218.586646 783.023158 217.181647 779.396561 217.181647zM692.218036 517.574205c-2.058892 0-4.116761 0.449231-6.02625 1.376347l-77.732385 37.244252-77.733409-37.244252c-4.321422-2.098801-9.405207-1.785669-13.467733 0.763386-4.049223 2.563382-6.516414 7.020904-6.516414 11.819187L510.741845 802.793178c0 7.716752 6.244214 13.959943 13.959943 13.959943l167.516248 0c7.715729 0 13.95892-6.244214 13.95892-13.959943l0-271.25903c0-4.798283-2.466168-9.255805-6.515391-11.819187C697.399035 518.296659 694.808024 517.574205 692.218036 517.574205zM608.460424 585.62816c2.057869 0 4.130064-0.463558 6.025227-1.37737l63.772442-30.549783L678.258093 788.833235 538.661731 788.833235l0-235.133252 63.772442 30.549783C604.329337 585.163579 606.401532 585.62816 608.460424 585.62816z"  horiz-adv-x="1024" />

    
    <glyph glyph-name="guoqi" unicode="&#59047;" d="M348.046393 529.483442M309.704133 437.92926c1.911536-10.864442 4.062526-21.360494 6.435573-31.480992l7.746428-33.05586c2.931772-12.508895 6.087649-24.654516 9.477862-36.420491l-19.653619-4.606925-3.142573 13.403265L192.635857 318.12568699999997l14.027481-59.857273c2.149966-14.57802 11.211343-19.686365 27.152407-15.315824l88.448448 20.730137c10.262738 1.769296 16.907065 4.904707 19.950378 9.383718 3.028986 4.483104 3.490497 15.267728 1.36816 32.370245 7.526417-2.642177 15.736403-4.177136 24.639167-4.592598 0.195451-16.920368-1.279133-28.726252-4.418636-35.43607-3.14155-6.705726-8.816806-11.332093-17.010419-13.888312l-119.719662-28.054963c-21.305235-5.611811-33.603329 1.243317-36.869722 20.579711l-18.005073 76.835969c-1.394766 5.944386-4.285606 16.896832-8.641821 32.844036l21.443381 5.024433c1.355881-8.488325 3.016707-16.890692 4.969175-25.224498l117.0386 27.431769-13.189394 56.284911-99.171674-23.24133c-13.70821-3.212158-29.118178-7.147794-46.25037-11.781324l-4.187369 17.86795c17.409508 3.445472 32.66598 6.714935 45.77351 9.784854L309.704133 437.92926zM452.475813 317.757297l-15.285125 65.222467c-14.293541-3.352351-24.650423-6.104021-31.060413-8.221242l-4.188392 17.866926c5.641487 0.055259 16.792455 2.051729 33.474392 5.960759l16.975627 3.978614c1.494027-9.075703 3.295046-18.078751 5.38873-27.013237l12.981662-55.392588c20.759813-10.849092 47.999201-12.461823 81.727373-4.879124 33.711799 7.590885 60.061934 15.179724 79.021751 22.756283-2.181689-6.78145-3.113921-14.863523-2.804882-24.219611l-53.605895-12.56313c-14.897292-3.491521-28.696576-6.251378-41.415248-8.290827-12.715603-2.036379-23.893176-1.977028-33.495882 0.161682-9.618055 2.15099-18.258852 4.837168-25.922393 8.06263-7.677866 3.223415-13.673417 1.343601-18.002003-5.632277-4.341888-6.983041-8.887414-16.368806-13.660114-28.178783-4.969175 5.124717-11.518335 8.93551-19.640316 11.420097C437.650153 299.204755 447.493336 312.19153400000005 452.475813 317.757297zM448.694697 438.457286c-5.123694-4.972245-9.868765-10.17678-14.252609-15.595186-16.666588 17.449417-28.603455 28.17162-35.808554 32.137954 4.665253 4.228301 9.048073 9.658987 13.152555 16.274662C419.40665 465.522712 431.720094 454.580498 448.694697 438.457286zM560.484759 351.55505400000004c3.296069 2.025123 3.892657 7.511067 1.803066 16.446577l-19.056008 81.299631-58.074673-13.607926c-6.560416-1.538029-13.635555-3.521197-21.233604-5.92085l-3.977591 16.97665c7.875365 1.212618 17.47807 3.154853 28.800953 5.807263l50.924833 11.933797c-3.626597 15.480576-7.367805 28.742625-11.209296 39.786145l20.550035 4.815679c1.215688-7.887644 4.063549-21.357424 8.527211-40.413432 12.509918 2.932796 23.74889 5.875824 33.742499 8.850575l3.979638-16.97665c-9.67229-1.6465-21.063735-3.991917-34.160008-7.060813l20.727067-88.452541c3.215228-13.70821 1.111311-22.828938-6.302543-27.39493-7.411807-4.562922-17.006326-8.549723-28.779464-11.92561-2.733251 6.265704-6.712889 12.56313-11.962449 18.87079C548.619524 347.19986200000005 557.192783 349.51867400000003 560.484759 351.55505400000004zM480.505193 407.267936c4.808516 3.629667 9.691733 8.237615 14.674211 13.808494 15.746636-18.930141 26.077935-32.222889 31.018457-39.85573-3.613294-3.366677-8.80555-8.04421-15.564487-14.015202C501.50446 382.028089 491.456616 395.372002 480.505193 407.267936zM703.082478 362.825748c-4.228301-10.107195-8.568143-19.119453-12.974499-27.075659-6.944156 2.778276-12.774955 4.872984-17.493419 6.26775 4.384867 5.414313 8.677637 12.547781 12.892635 21.399379 4.202719 8.837272 7.263427 17.252943 9.163707 25.242917l20.382213-6.53688C711.29758 379.35930599999995 707.314873 372.91861700000004 703.082478 362.825748zM654.079414 533.71379l18.761296 4.39817c2.192945-12.062733 4.205788-21.958104 6.02011-29.693276l40.202631 9.420557c-2.650363 11.310603-5.26184 21.066805-7.80271 29.275767l19.652596 4.607948c1.775436-10.276041 3.786233-20.173458 6.01704-29.694299 4.15974 0.973164 9.454326 2.52552 15.876596 4.662183l3.554966-15.187911c-6.096858-0.810459-11.529591-1.760087-16.288988-2.87549l19.891026-84.876086c4.761444 1.115404 10.05296 2.666736 15.874549 4.662183l3.557012-15.187911c-11.456936-2.068102-22.544459-4.342912-33.264615-6.855128l-48.247864-11.305487c-13.105482-3.071965-24.356734-6.033413-33.739429-8.849552l-3.560082 15.187911c9.074679 1.49198 17.185404 3.085268 24.332175 4.76042l-19.892049 84.876086c-5.358031-1.257643-11.542894-3.03001-18.551518-5.291516l-3.558036 15.189957c6.684236 0.932232 13.008268 2.103918 18.969027 3.502777C659.790486 513.3766029999999 657.177985 523.131781 654.079414 533.71379zM726.809879 484.785427l-4.606925 19.653619-40.203654-9.420557 4.605901-19.655665L726.809879 484.785427zM734.347552 452.620867l-4.39817 18.764366-40.204677-9.423627 4.399193-18.761296L734.347552 452.620867zM742.095004 419.56603l-4.605901 19.653619-40.206724-9.422603 4.605901-19.653619L742.095004 419.56603zM737.390865 387.357468c3.016707 3.211135 6.046716 7.693216 9.101285 13.44522 8.823969-5.474688 19.25146-12.455683 31.29782-20.940938-3.937682-4.692882-7.718799-9.984399-11.363815-15.858176C753.540683 376.06732999999997 743.869417 383.84138800000005 737.390865 387.357468zM856.35328 394.504238l-11.724019 50.030463-39.311331-9.209756c2.15099-14.575973 2.096754-29.051663-0.195451-43.402509-2.287089-14.363126-7.17747-28.383444-14.645558-42.074258-5.428639 4.38282-11.991102 6.936993-19.696598 7.638981 7.750521 12.490475 12.830213 24.991184 15.243169 37.499056 2.40477 12.492522 2.740414 24.515347 0.979304 36.044938-1.75804 11.516288-5.638417 30.091342-11.642155 55.706743-6.138814 26.202779-11.33107 46.973848-15.550161 62.331627l75.943646 17.798365c2.049682-11.462053 4.968152-25.226544 8.738012-41.307801l30.779004-131.336234c1.953492-8.332782 0.597611-14.614859-4.061502-18.857487-4.6673-4.230348-11.32493-7.986905-19.976984-11.281951-1.539053 6.561439-5.53097 12.842493-11.963473 18.872836C853.380576 384.381693 859.076298 388.235464 856.35328 394.504238zM829.552891 508.863822l-9.42158 40.203654-38.416961-9.002025 9.422603-40.204677L829.552891 508.863822zM841.488735 457.936943l-8.79327 37.523615-38.420031-9.002025 8.79634-37.526685L841.488735 457.936943zM506.849188 230.87246000000005c0.1361 3.88754 0.254803 7.274684 0.456395 13.021571-6.703679-1.235131-12.421914-2.086521-18.012236-3.457752-1.505283-0.369414-3.563152-2.26253-3.656273-3.575432-0.098237-1.375324 1.709945-3.923356 2.957355-4.107551 1.632173-0.237407 3.689019 1.103124 5.282307 2.180666 3.15997 2.146896 6.127558 4.575202 9.716292 6.123464-1.5104-10.096962-3.598968-11.749602-12.068873-12.459776-6.335289-0.532119-12.132318-1.299599-18.185174-5.278213-6.048763-3.973498-14.853289-3.693112-22.410406-5.448082-23.493064-5.452175-46.963615-11.004635-70.451562-16.482393-24.50102-5.716188-49.013297-11.392468-73.959455-17.188474-0.405229 4.41352-0.716314 7.798617-1.175779 12.811794-7.588839-1.763157-14.654768-3.403516-22.683628-5.26798 4.208858-5.904477 6.792707-9.205663 11.30651-2.044566 1.553379 2.466168 5.861498 3.191692 10.793834 5.65172-3.075035-8.450463-5.597485-12.812817-13.409404-13.34289-6.90527-0.469698-13.566994-3.871167-20.442588-5.548366-15.077394-3.677762-30.211069-7.127328-45.340651-10.589173-25.697265-5.881964-51.392484-11.776208-77.132728-17.460674-3.577478-0.791016-7.534604-1.088798-11.099802-0.437975-5.885034 1.073448-10.80509 3.545756-6.713912 9.403161-9.496282 12.68695-7.860015 27.735691-13.625322 40.678468 2.924609 1.379417 4.89345 2.306532 6.862291 3.231601-0.090051 0.545422-0.180102 1.090844-0.270153 1.63729-2.251274-0.050142-4.500501-0.100284-8.865925-0.201591 2.117221 3.433192 3.624551 5.881964 4.090155 6.633071-2.02717 3.715625-4.564969 6.873548-5.554506 10.455119-3.358491 12.168134-6.259564 24.467251-9.17087 36.755112-8.552793 36.08587-17.054421 72.182996-25.495674 108.294448-0.887206 3.800559-3.683902 8.518001 1.121544 9.344832-1.590218 2.602268-4.073782 5.28333-4.983501 8.419763-2.689249 9.273201-4.859681 18.701944-7.021927 28.119431-0.968048 4.213975-3.470031 8.523117 1.016143 12.70844 0.845251 0.788969-0.60989 4.7727-1.814322 6.801916-1.042749 1.753947-4.536316 2.708692-4.670369 4.221138-0.340761 3.831258-0.314155 8.238638 1.345648 11.512195 1.069355 2.112104 5.213745 2.850931 8.117888 3.773953 1.38044 0.438998 3.229554-0.602727 4.612041-0.167822 13.878079 4.365424 27.701922 8.897647 42.478464 13.687744-0.083911-3.373841-0.13303-5.373381-0.187265-7.484462 1.051959 0.13917 1.845021 0.055259 1.948375 0.284479 4.403287 9.727549 14.057157 10.562567 22.339798 11.282974 12.866029 1.118474 24.483624 6.39464 36.910655 8.654101 1.790786 0.325411 3.614317 0.472767 5.811356 0.751107 1.477654-3.815909-3.548826-10.838859 4.396123-10.549264-0.36839 3.597945-2.331092 8.617261-0.710175 10.426467 2.164293 2.415003 7.090489 2.429329 10.865465 3.318582 18.505469 4.367471 36.997636 8.801457 55.541991 12.992919 36.071543 8.150634 72.203462 16.040325 108.246353 24.312732 7.658424 1.75804 15.048741 4.687766 23.592324 7.405667-0.094144-5.327332-4.66423-11.33107 3.01159-11.740392-0.176009 3.37998-1.151219 6.703679-0.213871 9.350972 0.64059 1.814322 3.790326 3.356444 6.077416 3.880377 29.582759 6.77224 59.232033 13.242606 88.821955 19.97903 29.075199 6.620791 58.057277 13.651928 87.180572 20.059871 7.107885 1.563612 14.730493 0.757247 21.869077 2.229784 5.207605 1.074472 9.902534 5.593392 15.017018 5.969968 13.637602 1.006933 25.745361 7.41283 39.048341 9.575076 14.041808 2.28095 27.79709 6.29231 41.704844 9.423627 5.79703 1.305739 11.800767 2.605338 16.018835-3.414773 1.870604-2.668783 3.354398-5.610788 5.791913-9.748015-23.914666-3.76372-44.621267-12.559037-66.794265-12.538571-0.040932 0.651846-0.081864 1.306762-0.12382 1.958608-1.208525-1.542122-2.226714-4.197602-3.656273-4.443196-10.484795-1.797949-21.115923-2.77623-31.56081-4.749164-4.006244-0.7552-7.475252-4.194532-11.485589-5.123694-52.940746-12.268418-105.901958-24.469298-158.981874-36.121685-4.679579-1.027399-11.82021 0.306992-14.96483 3.420913-3.671623 3.640923-5.876847 2.883677-9.5454 1.87879-3.599991-0.985444-7.387247-1.514493-11.122315-1.725294-5.290493-0.298805-5.691629-2.778276-3.804652-6.967692 5.978155-0.819668 12.252045 6.719028 19.422352-1.443885-4.213975-0.978281-6.950296-1.626034-9.69378-2.25025-56.656371-12.909008-113.288183-25.932626-170.018232-38.509059-4.842285-1.075495-11.819187-1.01512-15.250332 1.720178-8.726755 6.960529-16.187681-0.337691-24.13263-0.316202-0.76134 0.001023-1.532913-3.155876-2.416026-5.106298 6.828522-1.436722 12.372795 5.712095 19.079544-0.841158-46.74565-10.861372-92.318592-21.450545-138.429793-32.163537 0.606821-3.679809 0.890276-6.2831 1.473561-8.816806 6.770194-29.360701 13.709233-58.683541 20.252253-88.096431 0.971118-4.367471 0.127913-9.140171 0.122797-15.081487 5.210675-3.491521 7.698333-9.807367 9.265014-27.427676-2.39249-1.044796-4.958942-2.168386-7.526417-3.294023-0.073678-0.528026-0.147356-1.050935-0.218988-1.576915 3.096525-0.639566 6.192026-1.281179 9.598612-1.984191 5.668093-24.39562 11.335163-49.005111 17.115819-73.590042 3.809769-16.198937 7.635911-32.397874 11.92868-48.472991 0.391926-1.463328 4.526083-3.225461 6.458085-2.790556 41.989323 9.467629 83.877339 19.390629 125.859499 28.894074 54.055127 12.233626 108.167558 24.213471 162.284083 36.163641 3.074012 0.679475 6.597255-0.537236 9.603729 0.270153 5.146207 1.38658 9.904581 4.303003 15.074324 5.496178 82.57774 19.061125 165.197436 37.926798 247.795643 56.893778 31.942503 7.335059 63.853283 14.81952 95.444792 22.160719 3.501754-6.133697 12.1886-7.062859 13.987572-1.824555 1.804089 5.252631 5.349845 5.28026 9.008164 6.129604 36.686551 8.53028 73.392544 16.98279 110.090351 25.458835 2.306532 0.533143 4.611018 1.069355 8.103562 1.882883-5.449106 23.449062-10.731412 46.170552-16.006556 68.89716-5.228071 22.537296-10.742668 45.014216-15.585977 67.635423-4.846378 22.64065-8.335852 45.587268-13.675464 68.103074-5.231141 22.066575-12.045337 43.757596-17.686824 63.906495-5.265934 2.730181-9.701966 5.265934-14.337543 7.364735-4.188392 1.899256-8.360412 6.442736-13.205766 0.657986-0.653893-0.777713-3.15997-0.001023-4.808516 0.055259-0.066515-0.705058-0.13303-1.410116-0.198521-2.116197 4.364401-0.334621 8.727779-0.668219 13.474896-1.031493-0.581238-5.694699-3.214205-7.987928-9.457396-7.179516-2.614547 0.338714-5.486968-2.450818-8.399297-3.040243-16.186657-3.275603-32.440853-6.231935-48.63058-9.500375-2.996241-0.605797-5.718235-2.64627-8.716522-3.155876-11.339256-1.928932-22.737864-3.501754-34.254152-5.227048-0.005117-0.033769-0.166799-1.354857-0.330528-2.674922-1.172709 0.277316-2.792603 0.166799-3.440355 0.907673-3.208065 3.669576-6.158257 7.566326-10.238179 12.68695 16.443507 3.820002 32.17377 7.66968 47.995107 11.100826 19.014052 4.124947 38.126342 7.797593 57.150628 11.886725 4.376681 0.941442 8.471952 3.264347 12.861936 4.084015 5.676279 1.058099 12.646018 5.346775 15.706727-4.211928 0.060375-0.191358 1.923816 0.194428 3.768837 0.406253-1.299599 2.51631-2.317789 4.490268-4.03592 7.816013 5.253654 0.221034 9.895371 0.417509 14.923898 0.629333-0.592494-2.945075-1.010003-5.02341-1.426489-7.103792 1.14201-0.627287 2.285043-1.25662 3.429099-1.88493 0.277316 2.38635 0.558725 4.7727 0.943488 8.058536 2.601244-2.007727 4.130064-3.186576 5.596462-4.319375-0.598634-1.047866-0.76748-1.76111-1.100054-1.849114-1.293459-0.344854-2.636037-0.490164-3.963265-0.709151 0.674359-1.188058 1.193175-2.512217 2.060939-3.539616 1.782599-2.111081 4.882194-3.78521 5.466502-6.128581 5.054109-20.349467 9.670244-40.808428 14.429641-61.290925-2.300392-1.24127-4.236488-2.286066-7.457856-4.02671 11.714809-3.699252 11.085476-13.780865 13.0799-21.721721 11.186783-44.488237 21.833261-89.113597 32.481785-133.735887 3.738138-15.660678 7.013741-31.434943 10.399861-47.178509 2.301416-10.712993 1.202385-12.573363-9.333576-15.401782-27.15957-7.293103-54.199413-15.125489-81.561597-21.561062-48.555879-11.418051-97.323583-21.927405-145.988955-32.885991-25.567305-5.758144-51.071166-11.805884-76.662007-17.460674-18.903535-4.175089-37.948287-7.708566-56.842613-11.92561-17.943674-4.001127-35.766598-8.534374-53.655014-12.789281C527.12907 235.54180699999995 517.347287 233.31304599999999 506.849188 230.87246000000005zM546.174845 248.31266800000003c11.238972 1.300622 21.234627 2.384303 31.201629 3.689019 1.685385 0.220011 3.245927 1.394766 4.862751 2.128477-0.349971 0.715291-0.698918 1.428535-1.048889 2.14485-12.32777-1.052982-24.654516-2.106987-37.360909-3.195785C544.465924 251.786793 545.447275 249.792369 546.174845 248.31266800000003zM345.080851 202.21784000000002c11.444657 1.157359 21.696138 2.109034 31.914874 3.342118 1.282203 0.155543 2.384303 1.811252 4.972245 3.90289-10.986215-0.76134-19.515473-1.272993-28.02938-1.988284-3.183506-0.270153-6.326079-1.02126-10.369162-1.698688C343.664595 205.55177200000003 344.490404 203.60953700000005 345.080851 202.21784000000002z"  horiz-adv-x="1024" />

    
    <glyph glyph-name="tianjiahaoyou" unicode="&#59356;" d="M759.296 204.202667c7.424 9.173333 5.994667 22.613333-3.157333 29.994667-44.266667 35.776-97.088 61.76-154.410667 77.205333 107.072 47.530667 182.037333 154.666667 182.037333 279.146667C783.744 758.997333 646.72 896 478.314667 896 309.909333 896 172.885333 758.997333 172.885333 590.570667c0-125.525333 76.16-233.514667 184.661333-280.426667C180.672 257.877333 51.114667 94.208 51.114667-99.392c0-11.797333 9.557333-21.333333 21.333333-21.333333s21.333333 9.536 21.333333 21.333333c0 212.032 172.501333 384.533333 384.533333 384.533333 94.741333 0 183.893333-29.866667 250.965333-84.096C738.474667 193.578667 751.914667 195.072 759.296 204.202667zM215.552 590.570667C215.552 735.466667 333.418667 853.333333 478.314667 853.333333c144.896 0 262.762667-117.866667 262.762667-262.762667s-117.866667-262.762667-262.762667-262.762667C333.418667 327.808 215.552 445.696 215.552 590.570667zM1004.181333 100.288l-161.322667 0 0 161.322667c0 11.797333-9.536 21.333333-21.333333 21.333333s-21.333333-9.536-21.333333-21.333333l0-161.322667-161.322667 0c-11.797333 0-21.333333-9.536-21.333333-21.333333s9.536-21.333333 21.333333-21.333333l161.322667 0 0-161.322667c0-11.797333 9.536-21.333333 21.333333-21.333333s21.333333 9.536 21.333333 21.333333l0 161.322667 161.322667 0c11.797333 0 21.333333 9.536 21.333333 21.333333S1015.978667 100.288 1004.181333 100.288z"  horiz-adv-x="1026" />

    
    <glyph glyph-name="weizhi" unicode="&#59366;" d="M512 896C294.208 896 117.034667 718.848 117.056 501.077333c0-80.896 24.298667-158.677333 69.781333-224.149333 2.282667-3.925333 4.586667-7.722667 7.296-11.413333l288.277333-379.989333C490.24-123.2 500.757333-128 512.021333-128c11.114667 0 21.696 4.842667 30.848 15.104l286.954667 378.474667c2.837333 3.754667 5.248 7.872 6.570667 10.282667 46.144 66.389333 70.570667 144.256 70.570667 225.173333C906.965333 718.848 729.792 896 512 896zM512 359.829333c-77.781333 0-141.077333 63.296-141.077333 141.098667 0 77.781333 63.296 141.056 141.077333 141.056 77.781333 0 141.077333-63.296 141.077333-141.056C653.077333 423.125333 589.781333 359.829333 512 359.829333z"  horiz-adv-x="1024" />

    
    <glyph glyph-name="qq" unicode="&#58902;" d="M537.407-2.774v0c-12.725 0-19.065 0-25.407 0-6.298 0-12.681 0-19.024 0h-6.342c-6.342 0-19.024 0-25.365-6.298-25.365-25.407-69.753-38.090-126.825-38.090-38.047 0-69.753 6.383-101.462 19.024-25.365 12.681-38.047 25.407-38.047 44.39 0 19.024 12.681 31.705 44.39 44.432 19.024 6.298 25.365 12.639 25.365 25.407 0 12.639 0 25.323-6.342 31.705-12.681 12.556-19.024 31.622-31.705 44.262-6.342 12.681-19.024 19.065-31.705 19.065v0c-12.681 0-19.024-6.383-31.705-12.768-12.681-12.639-19.024-18.939-25.365-18.939v0c-6.342 0-12.639 18.939-12.639 50.646s6.299 69.796 12.598 107.887c12.681 38.005 31.705 69.711 63.412 101.418 6.342 6.298 12.681 19.024 12.681 31.705 0 6.298 0 6.298 0 12.639 0 19.065 6.342 38.047 19.024 57.072 6.342 6.342 6.342 12.681 6.342 19.024v6.342c0.042 76.138 25.365 139.55 82.479 196.622 50.731 57.114 114.142 82.437 190.238 82.437 76.095 0 139.508-25.365 196.579-82.437 50.772-57.072 82.479-120.484 82.479-196.537 0 0 0 0 0-6.342 0-6.342 0-12.681 6.298-19.024 12.681-19.024 19.024-38.005 19.024-57.072 0-6.342 0-6.342 0-12.639 0-12.681 0-25.407 12.681-31.705 31.705-31.705 50.731-63.412 63.412-101.418 12.681-38.090 19.024-76.179 12.681-107.887 0-31.705-6.342-44.345-18.983-50.646-6.342 0-12.725 6.299-25.407 18.939-6.299 6.342-19.024 12.768-31.705 12.768h-6.299c-12.725 0-25.407-6.383-31.705-19.065-6.342-19.024-19.065-31.705-31.705-44.345-6.342-6.383-12.725-19.065-6.342-31.705 0-12.768 12.681-19.065 18.983-25.407 31.665-12.768 44.39-25.45 44.39-44.473 0-18.982-12.725-31.705-38.047-44.39-25.365-12.639-63.412-19.024-101.462-19.024-57.072 0-95.119 12.725-126.825 38.090 6.342 0-6.342 6.342-12.639 6.342v0zM683.215-123.301c63.412 0 114.142 12.681 152.19 38.005 38.047 25.407 63.412 57.114 63.412 101.462 0 25.365-6.299 44.432-18.982 63.412 6.342 0 18.982 0 25.365 6.383 38.047 12.639 57.072 44.345 63.412 95.119 6.342 44.345 0 95.119-18.982 152.149-12.725 44.432-38.047 82.437-69.753 120.484v0c0 31.705-6.342 57.072-19.024 88.777 0 95.119-31.705 177.556-101.418 247.352-69.882 69.753-152.317 101.462-247.435 101.462-95.119 0-177.556-31.705-247.31-101.418-63.455-69.796-101.462-152.233-101.462-247.352-12.681-25.365-19.024-57.072-19.024-88.777v-6.342c-38.047-31.705-57.072-76.095-69.753-114.142-19.024-57.029-25.365-107.802-19.024-152.149 6.342-50.772 31.705-82.479 63.412-95.119 6.342 0 19.024-6.383 25.365-6.383-12.681-18.982-19.024-38.047-19.024-63.412 0-38.047 19.024-76.095 63.412-101.462 38.047-25.365 88.777-38.047 145.848-38.047 63.412 0 120.484 12.681 158.532 44.39h31.705c44.432-31.705 95.119-44.39 158.532-44.39v0z"  horiz-adv-x="1024" />

    
    <glyph glyph-name="8xueli" unicode="&#59532;" d="M506.311111 278.755556c-8.533333 0-19.911111 2.844444-25.6 5.688889l-412.444444 256C59.733333 546.133333 56.888889 551.822222 56.888889 560.355556c0 8.533333 2.844444 14.222222 8.533333 17.066667l412.444444 256c11.377778 8.533333 39.822222 8.533333 51.2 0l403.911111-256c5.688889-2.844444 8.533333-11.377778 8.533333-17.066667 0-8.533333-2.844444-14.222222-8.533333-17.066667l-403.911111-256C526.222222 281.6 514.844444 278.755556 506.311111 278.755556L506.311111 278.755556 506.311111 278.755556zM500.622222 347.022222c0 0 2.844444 0 5.688889 0 2.844444 0 5.688889 0 8.533333 0l349.866667 213.333333L512 776.533333l0 0c0 0-2.844444 0-5.688889 0-2.844444 0-5.688889 0-8.533333 0L142.222222 560.355556 500.622222 347.022222 500.622222 347.022222 500.622222 347.022222 500.622222 347.022222zM941.511111 85.333333c-19.911111 0-28.444444 17.066667-28.444444 28.444444L913.066667 429.511111c0 11.377778 11.377778 22.755556 25.6 22.755556 19.911111 2.844444 28.444444-11.377778 28.444444-22.755556l0-315.733333C967.111111 102.4 961.422222 85.333333 941.511111 85.333333L941.511111 85.333333zM509.155556-71.111111 201.955556 113.777778 270.222222 469.333333l238.933333-128 238.933333 128 65.422222-355.555556L509.155556-71.111111 509.155556-71.111111zM264.533333 142.222222l241.777778-147.911111 241.777778 145.066667-45.511111 250.311111-199.111111-93.866667-196.266667 91.022222L264.533333 142.222222 264.533333 142.222222zM256 130.844444"  horiz-adv-x="1024" />

    
    <glyph glyph-name="iconset0125" unicode="&#58904;" d="M964.608 673.792c0 13.312-8.192 21.504-21.504 21.504-4.096 0-12.288-4.096-17.408-8.192l0 0-545.792-563.2L80.896 421.888c-4.096 0-8.192 4.096-12.288 4.096-13.312 0-21.504-8.192-21.504-21.504 0-4.096 4.096-13.312 4.096-13.312l311.296-311.296c4.096-4.096 8.192-4.096 13.312-4.096 4.096 0 13.312 4.096 17.408 8.192l0 0 563.2 576.512 0 0C960.512 665.6 964.608 669.696 964.608 673.792z"  horiz-adv-x="1024" />

    
    <glyph glyph-name="peiduiyuehui02" unicode="&#59182;" d="M13.4414 597.998933C-30.607667 437.777067 113.656866 371.370667 113.656866 371.370667c-35.1232-18.0736-104.5504-69.256533-112.9472-156.16-10.1888-105.5744 90.231467-233.130667 243.4048-191.658667 221.713067 73.6256 414.3616 347.016533 414.3616 347.016533-250.606933 330.376533-412.245333 348.672-412.245333 348.672S59.794466 766.446933 13.4414 597.998933zM1027.184333 525.636267c10.171733 105.540267-90.231467 233.096533-243.421867 191.6416-86.954667-28.859733-169.2672-88.4736-237.4144-150.254933 51.080533-48.503467 109.1072-112.315733 172.919467-196.4544 0 0-71.236267-100.9664-176.810667-196.727467 149.3504-141.738667 239.2064-152.234667 239.2064-152.234667s186.436267-47.2064 232.8064 121.2416c44.032 160.2048-100.232533 226.594133-100.232533 226.594133C949.360333 387.549867 1018.787533 438.7328 1027.184333 525.636267z"  horiz-adv-x="1028" />

    
    <glyph glyph-name="xin1" unicode="&#58945;" d="M700.856275 740.457458c-74.768891 0-144.295384-72.696696-190.046381-127.260405C465.073224 667.773042 395.563104 740.457458 320.754305 740.457458c-134.789892 0-244.443291-105.780185-244.443291-235.799424 0-77.56968 39.277562-131.98808 70.844511-175.712931 91.752704-126.998439 322.464249-285.038872 332.234777-291.701618 9.410324-6.414083 20.424168-9.629311 31.401174-9.629311 11.005658 0 21.998013 3.215228 31.397081 9.629311 9.782807 6.662747 240.514819 164.703179 332.23887 291.701618 31.586392 43.723827 70.873164 98.143251 70.873164 175.712931C945.299567 634.678296 835.645145 740.457458 700.856275 740.457458L700.856275 740.457458zM700.856275 740.457458"  horiz-adv-x="1024" />

    
    <glyph glyph-name="079aiqing" unicode="&#58964;" d="M804.222993 492.044762c-15.868409 0-31.191396-2.753717-45.75202-8.015557 20.176528 109.525486-27.374464 201.792912-100.338243 246.591211-69.309552 42.561351-170.684404 42.916439-244.137323-46.569642-49.133024 59.46637-116.042923 85.587284-184.916547 70.564126-84.032882-18.376533-148.98008-93.303013-161.631214-186.497555-10.088776-74.489528 2.12643-267.285532 333.732897-447.975824 4.034896-2.208295 8.452509-3.299139 12.869099-3.299139s8.834202 1.089821 12.870122 3.299139c24.484647 13.30605 47.932686 27.1565 69.963445 41.252543 42.262546-54.06843 105.081267-104.046704 187.370435-148.898215 3.981684-2.181689 8.452509-3.272533 12.869099-3.272533 4.417613 0 8.835226 1.090844 12.870122 3.272533 97.556896 53.16792 167.793564 113.562429 208.801537 179.408089 45.533033 73.126484 43.952025 134.610814 34.626635 173.328627C935.69942 438.713113 872.987123 492.044762 804.222993 492.044762M697.122743 69.672058c-220.961484 125.176954-211.363895 247.02714-202.966645 281.928021 11.669784 48.559972 52.023864 83.841523 95.812159 83.841523 32.391734 0 62.165852-19.685341 83.814917-55.431473 5.016247-8.28878 13.851473-13.359262 23.339568-13.359262 9.488095 0 18.323321 5.071506 23.340591 13.359262 21.594831 35.746132 51.367925 55.431473 83.760682 55.431473 43.843554 0 84.142375-35.282574 95.812159-83.841523C908.487661 316.699198 918.031015 194.821383 697.122743 69.672058"  horiz-adv-x="1024" />

    
    <glyph glyph-name="jian" unicode="&#59050;" d="M171.15136 554.99776l684.02176 0-342.016-341.99552L171.15136 554.99776z"  horiz-adv-x="1024" />

    
    <glyph glyph-name="xiaolian" unicode="&#58919;" d="M512.016-128C229.232-128 0.016 101.216 0.016 384 0.016 666.784 229.232 896 512.016 896 794.784 896 1024 666.784 1024 384 1024 101.216 794.784-128 512.016-128ZM512.016 832C264.976 832 64.016 631.04 64.016 384 64.016 136.976 264.976-64 512.016-64 759.04-64 960 136.976 960 384 960 631.04 759.04 832 512.016 832ZM510.336 62.544C509.056 62.544 507.744 62.512 506.448 62.512 310.992 62.512 229.024 238.88 225.616 246.448 218.336 262.576 225.488 281.504 241.584 288.784 257.712 296.032 276.576 288.912 283.888 272.912 286.64 266.88 352.928 126.512 506.576 126.512 507.584 126.512 508.576 126.544 509.584 126.544 672.896 128.448 738.368 271.232 739.024 272.656 746.176 288.784 765.024 296.128 781.264 288.848 797.392 281.664 804.672 262.752 797.456 246.592 794.176 239.2 714.208 64.944 510.336 62.544ZM671.504 416.16C636.224 416.16 607.664 444.768 607.664 480.016 607.664 515.232 636.224 543.824 671.504 543.824 706.768 543.824 735.344 515.232 735.344 480.016 735.344 444.768 706.768 416.16 671.504 416.16ZM351.504 416.16C316.224 416.16 287.664 444.768 287.664 480.016 287.664 515.232 316.224 543.824 351.504 543.824 386.768 543.824 415.344 515.232 415.344 480.016 415.344 444.768 386.768 416.16 351.504 416.16Z"  horiz-adv-x="1025" />

    
    <glyph glyph-name="guanyuwomen" unicode="&#58910;" d="M516.251837-62.322162c-246.49809 0-446.321138 199.826118-446.321138 446.321138S269.753747 830.322162 516.251837 830.322162c246.496044 0 446.321138-199.828165 446.321138-446.323185S762.747881-62.322162 516.251837-62.322162zM516.251837 634.374374c-30.060643 0-54.429657-24.369014-54.429657-54.42761 0-30.062689 24.369014-54.431703 54.429657-54.431703 30.060643 0 54.429657 24.369014 54.429657 54.431703C570.681494 610.00536 546.31248 634.374374 516.251837 634.374374zM570.681494 416.656771c0 24.048719-19.497053 43.543725-43.543725 43.543725l-21.771863 0c-24.048719 0-43.543725-19.493983-43.543725-43.543725l0-261.261329c0-24.046672 19.493983-43.543725 43.543725-43.543725l21.771863 0c24.046672 0 43.543725 19.497053 43.543725 43.543725L570.681494 416.656771z"  horiz-adv-x="1024" />

    
    <glyph glyph-name="anquanrenzheng" unicode="&#58899;" d="M511.970809-51.048873c-66.764523 0-156.377446 45.963173-233.868615 119.953799C193.060167 150.113141 144.283667 245.431778 144.283667 330.426369L144.283667 670.256342c0 16.643999 13.351445 30.213163 29.994227 30.479535l33.515447 0.546124 0.037706 0c2.014211 0.052301 71.201625 2.057998 141.767119 30.706985 74.812852 30.402908 123.911675 65.585917 124.395767 65.937431L493.94873 812.451603c10.667047 7.762496 25.115604 7.786823 35.805761 0.057167l20.159137-14.577486c0.057167-0.042571 0.119198-0.085142 0.176365-0.127713 1.525254-1.098329 49.816446-35.586825 124.230348-65.814584 70.698072-28.663583 139.85143-30.659549 141.8328-30.706985l0.047436 0 33.358543-0.546124c16.634268-0.271237 29.979632-13.825806 29.989362-30.46494l0.161769-339.829973c0-85.014052-48.7765-180.337555-133.818527-261.534823C668.39934-5.084484 578.768172-51.048873 511.970809-51.048873L511.970809-51.048873zM205.256117 640.262115l0-309.834529c0-68.417489 41.89583-147.662578 114.955978-217.420442 64.569081-61.656017 141.633325-103.08235 191.758714-103.08235 50.153364 0 127.241934 41.426334 191.815881 103.08235 73.055283 69.748133 114.951112 148.998088 114.951112 217.420442l-0.147174 309.834529-3.387426 0.062032c-6.913511 0.166635-84.191826 2.888738-163.812755 35.173279-78.760997 31.990193-130.763154 68.412624-137.201088 73.035822l-0.004865-0.00973-2.238012 1.620126-2.141924-1.56296c-2.290313-1.657832-55.461345-39.839048-137.26312-73.078393-79.526057-32.294271-156.856672-35.01151-163.760453-35.178144l0-0.004865L205.256117 640.262115 205.256117 640.262115zM205.256117 640.262115M471.509009 252.055808 471.509009 252.055808c-10.238905 0-20.064265 4.072209-27.304964 11.312908l-100.607158 100.607158c-15.079823 15.079823-15.079823 39.533754 0 54.613577 15.081039 15.081039 39.530105 15.081039 54.611144-0.004865l73.300978-73.300978 173.909352 173.906919c15.079823 15.081039 39.530105 15.085904 54.609928 0 15.079823-15.079823 15.079823-39.530105 0-54.609928L498.813973 263.367499C491.573274 256.1268 481.75278 252.055808 471.509009 252.055808L471.509009 252.055808zM471.509009 252.055808"  horiz-adv-x="1024" />

    
    <glyph glyph-name="gou" unicode="&#59398;" d="M512 832C264.32 832 64 631.6800000000001 64 384s200.32-448 448-448c247.68 0 448 200.32 448 448S759.68 832 512 832zM512 0c-211.84 0-384 172.16-384 384s172.16 384 384 384c211.84 0 384-172.16 384-384S723.84 0 512 0zM709.76 567.6800000000001L472.32 334.08000000000004l-98.56 96c-12.8 12.8-33.28 12.8-46.08 0-12.8-12.8-12.8-33.28 0-45.44l121.6-119.04c12.8-12.8 33.28-12.8 46.08 0l260.48 256c12.8 12.8 12.8 33.28 0 45.44C743.68 580.48 722.56 580.48 709.76 567.6800000000001z"  horiz-adv-x="1024" />

    
    <glyph glyph-name="shanchu" unicode="&#58931;" d="M907.618072 663.257647 744.713682 663.257647 744.713682 779.617048c0 12.852708-10.419786 23.272495-23.272495 23.272495L302.556765 802.889543c-12.852708 0-23.272495-10.418762-23.272495-23.272495l0-116.360425L116.380904 663.256623c-12.852708 0-23.272495-10.419786-23.272495-23.272495s10.418762-23.272495 23.272495-23.272495l791.237168 0c12.852708 0 23.272495 10.419786 23.272495 23.272495S920.469756 663.257647 907.618072 663.257647zM325.829259 756.345577l372.340458 0 0-93.08793L325.829259 663.257647 325.829259 756.345577zM791.257647 523.637015c-12.852708 0-23.272495-10.418762-23.272495-23.272495l0-488.712146L256.012799 11.652375 256.012799 500.364521c0 12.852708-10.418762 23.272495-23.272495 23.272495s-23.272495-10.418762-23.272495-23.272495l0-511.983617c0-12.852708 10.418762-23.272495 23.272495-23.272495l558.516318 0c12.852708 0 23.272495 10.419786 23.272495 23.272495L814.529118 500.364521C814.529118 513.217229 804.110355 523.637015 791.257647 523.637015zM442.189684 128.012799l0 372.351721c0 12.852708-10.418762 23.272495-23.272495 23.272495s-23.272495-10.418762-23.272495-23.272495l0-372.351721c0-12.852708 10.418762-23.272495 23.272495-23.272495S442.189684 115.160091 442.189684 128.012799zM628.353257 128.012799l0 372.351721c0 12.852708-10.419786 23.272495-23.272495 23.272495s-23.272495-10.418762-23.272495-23.272495l0-372.351721c0-12.852708 10.419786-23.272495 23.272495-23.272495S628.353257 115.160091 628.353257 128.012799z"  horiz-adv-x="1024" />

    
    <glyph glyph-name="liebiaomoshi" unicode="&#59067;" d="M411.390581 777.632125l0-300.852022-292.665573 0 0 300.852022L411.390581 777.632125M414.4605 831.867354l-298.80541 0c-28.257577 0-51.16531-22.907733-51.16531-51.16531l0-306.99186c0-28.257577 22.907733-51.16531 51.16531-51.16531l298.80541 0c28.257577 0 51.16531 22.907733 51.16531 51.16531l0 306.99186C465.62581 808.959621 442.718077 831.867354 414.4605 831.867354L414.4605 831.867354zM411.390581 291.893232l0-300.852022-292.665573 0 0 300.852022L411.390581 291.893232M414.4605 346.128461l-298.80541 0c-28.257577 0-51.16531-22.907733-51.16531-51.16531l0-306.99186c0-28.257577 22.907733-51.16531 51.16531-51.16531l298.80541 0c28.257577 0 51.16531 22.907733 51.16531 51.16531l0 306.99186C465.62581 323.220728 442.718077 346.128461 414.4605 346.128461L414.4605 346.128461zM929.695171 738.234837l-344.854189 0c-14.976086 0-27.117614-12.141528-27.117614-27.117614 0-14.97711 12.141528-27.117614 27.117614-27.117614l344.854189 0c14.97711 0 27.117614 12.140505 27.117614 27.117614C956.812785 726.093309 944.671257 738.234837 929.695171 738.234837L929.695171 738.234837zM929.695171 570.41262l-344.854189 0c-14.976086 0-27.117614-12.141528-27.117614-27.117614 0-14.97711 12.141528-27.117614 27.117614-27.117614l344.854189 0c14.97711 0 27.117614 12.140505 27.117614 27.117614C956.812785 558.271092 944.671257 570.41262 929.695171 570.41262L929.695171 570.41262zM930.718477 252.495944l-344.854189 0c-14.976086 0-27.117614-12.140505-27.117614-27.117614 0-14.97711 12.141528-27.117614 27.117614-27.117614l344.854189 0c14.97711 0 27.117614 12.140505 27.117614 27.117614C957.836091 240.354416 945.694563 252.495944 930.718477 252.495944L930.718477 252.495944zM930.718477 84.673727l-344.854189 0c-14.976086 0-27.117614-12.140505-27.117614-27.117614s12.141528-27.117614 27.117614-27.117614l344.854189 0c14.97711 0 27.117614 12.140505 27.117614 27.117614S945.694563 84.673727 930.718477 84.673727L930.718477 84.673727z"  horiz-adv-x="1024" />

    
    <glyph glyph-name="shouji1" unicode="&#59473;" d="M731.968 837.888 292.032 837.888c-44.192 0-80-35.808-80-80l0-747.776c0-44.192 35.808-80 80-80l439.936 0c44.192 0 80 35.808 80 80L811.968 757.888C811.968 802.08 776.16 837.888 731.968 837.888zM512 11.44c-17.664 0-32 14.336-32 32s14.336 32 32 32 32-14.336 32-32S529.664 11.44 512 11.44zM747.968 128.016 276.032 128.016 276.032 757.888c0 8.832 7.168 16 16 16l439.936 0c8.832 0 16-7.168 16-16L747.968 128.016z"  horiz-adv-x="1024" />

    
    <glyph glyph-name="zhanghuzichan" unicode="&#58916;" d="M580.283733 179.2C541.269333 179.2 512.017067 207.2576 512.017067 247.466667L512.017067 315.733333C512.017067 355.959467 541.269333 384 580.283733 384L1024.017067 384 1024.017067 179.2 580.283733 179.2ZM648.5504 349.866667C619.298133 349.866667 580.283733 311.773867 580.283733 281.6 580.283733 251.4432 619.298133 213.333333 648.5504 213.333333 677.802667 213.333333 716.817067 251.4432 716.817067 281.6 716.817067 311.773867 677.802667 349.866667 648.5504 349.866667ZM477.883733 315.733333 477.883733 247.466667C477.883733 187.153067 521.7792 145.066667 580.283733 145.066667L955.7504 145.066667 955.7504 8.533333C955.7504-51.780267 911.854933-93.866667 853.3504-93.866667L102.417067-93.866667C43.912533-93.866667 0.017067-51.780267 0.017067 8.533333L0 679.8336C0 740.164267 43.912533 793.6 102.417067 793.6L409.617067 793.6 341.3504 725.333333 102.417067 725.333333C73.1648 725.333333 35.328 723.677867 35.328 693.521067 35.328 663.3472 39.031467 657.066667 68.283733 657.066667L955.7504 657.066667 955.7504 418.133333 580.283733 418.133333C521.7792 418.133333 477.883733 376.064 477.883733 315.733333ZM375.483733 691.2 697.429333 861.883733 750.9504 691.2 375.483733 691.2ZM785.083733 793.6 853.3504 793.6C884.258133 793.6 902.2464 747.1104 921.617067 725.333333L785.083733 725.333333 785.083733 793.6Z"  horiz-adv-x="1025" />

    
    <glyph glyph-name="icon" unicode="&#58961;" d="M887.819434 345.873658l0-97.468892L584.438822 248.404766l0-313.569672L435.023838-65.164906 435.023838 248.404766 127.129422 248.404766l0 97.468892 298.844296 0L90.911546 833.164906l181.103708 0 239.981676-406.785703L756.506736 833.164906l176.581718 0L593.504292 345.873658 887.819434 345.873658 887.819434 345.873658zM887.819434 345.873658"  horiz-adv-x="1024" />

    
    <glyph glyph-name="jiahao01" unicode="&#58896;" d="M531.523147 618.43945l-39.065737 0 0-214.868719L277.589714 403.570731l0-39.065737 214.867696 0 0-214.868719 39.065737 0L531.523147 364.504994l195.333804 0 0 39.065737L531.523147 403.570731 531.523147 618.43945zM835.531046 695.809585c-83.378989 86.449931-195.371666 135.131677-315.41367 137.381927l-8.335852 0.037862c-243.233744 0-444.728874-197.814298-449.136254-441.026552C58.14477 144.485975 256.034792-60.651103 503.806899-65.191512l8.296967-0.037862c243.25114 0 444.804598 197.890023 449.248817 441.026552C963.527209 495.840204 918.872173 609.511103 835.531046 695.809585zM929.135934 376.484839C924.976194 150.667767 737.864656-32.991136 512.103866-32.991136l-7.744381 0.113587c-229.974765 4.118807-413.691997 194.532555-409.456532 424.430572 4.081968 225.77921 191.099363 409.438113 416.878572 409.438113l7.742335-0.075725c111.458511-1.944282 215.383442-47.267537 292.734134-127.500882C889.647571 593.257931 931.118078 487.770412 929.135934 376.484839z"  horiz-adv-x="1024" />

    
    <glyph glyph-name="shijian" unicode="&#58926;" d="M515.38758-128.002596c-271.476637 0-491.521565 220.063898-491.521565 491.521565 0 271.496605 220.04393 491.540535 491.521565 491.540535 271.496605 0 491.540535-220.04393 491.540535-491.540535 0-271.457668-220.04393-491.521565-491.540535-491.521565zM515.38758 793.619808c-237.522963 0-430.080871-192.557907-430.080871-430.100839 0-237.522963 192.557907-430.080871 430.080871-430.080871 237.541933 0 430.100839 192.557907 430.100839 430.080871 0 237.541933-192.557907 430.100839-430.100839 430.100839zM776.95607 302.078275l-262.000799 0c-9.260184 0-17.439097 4.286142-22.983227 10.911542-4.482827 5.269569-7.294329 11.973842-7.294329 19.385982l0 0.275559c0 0.058906-0.019968 0.097843-0.019968 0.157748s0.019968 0.078874 0.019968 0.157748l-0.019968 307.496006c0.019968 16.73123 13.762979 30.277556 30.729832 30.277556 16.966853 0 30.7498-13.566294 30.7498-30.277556l-0.019968-276.942891 230.798722 0c16.751198 0 30.336462-13.743011 30.317492-30.709864 0-16.986821-13.546326-30.729832-30.277556-30.729832z"  horiz-adv-x="1024" />

    
    <glyph glyph-name="liebiao8" unicode="&#58955;" d="M416.006204 395.995195l-350.994026 0L65.012178 575.568037c0 76.983325 73.821309 149.931754 151.901619 149.931754l199.092407 0L416.006204 395.995195zM112.084263 443.06728l255.82655 0 0 235.360426L216.91482 678.427706c-52.005444 0-104.829534-51.9113-104.829534-102.859669L112.085286 443.06728zM708.005604 347.56109c-128.945791 0-233.852072 104.896048-233.852072 233.830583 0 128.959094 104.907305 233.875608 233.852072 233.875608 128.947837 0 233.853096-104.916515 233.853096-233.875608C941.8587 452.457138 836.953442 347.56109 708.005604 347.56109zM708.005604 768.497071c-103.157451 0-187.081862-83.934644-187.081862-187.105399 0-103.144148 83.925435-187.05935 187.081862-187.05935 103.158475 0 187.080839 83.914178 187.080839 187.05935C895.086443 684.561403 811.163055 768.497071 708.005604 768.497071zM843.413983 451.800193l116.925433-116.925433-33.071215-33.071215-116.925433 116.925433 33.071215 33.071215ZM416.006204-46.073082 216.91482-46.073082c-37.357839 0-74.841545 12.490475-102.839203 34.270525-31.638581 24.613584-49.063439 58.805314-49.063439 96.280834L65.012178 304.920944l350.994026 0L416.006204-46.073082zM112.084263 256.825552l0-172.347277c0-51.662637 54.336536-83.479273 104.829534-83.479273l150.997016 0 0 255.82655L112.084263 256.825552zM731.391221-46.073082 510.150374-46.073082l0 350.994026 350.994026 0 0-220.442668C861.1444 6.38978 808.554648-46.073082 731.391221-46.073082zM557.222459 0.999003 731.391221 0.999003c51.405787 0 81.657788 31.105439 81.657788 83.479273L813.049009 256.825552l-255.82655 0L557.222459 0.999003z"  horiz-adv-x="1024" />

    
    <glyph glyph-name="kefu" unicode="&#58970;" d="M515.530406 125.768681c4.366448 0 8.812713 0.267083 13.284561 0.800225 42.889833 5.14723 79.310324 35.124985 92.75452 76.437903 1.01205 3.093455-0.452301 6.40078-3.40761 7.760754-2.928702 1.359974-6.469342 0.186242-8.119935-2.586918-0.159636-0.267083-17.198707-27.79095-83.542718-36.752042-9.930163-1.333368-19.594267-2.02717-28.752858-2.02717-46.483684 0.026606-67.196425 17.548678-67.382667 17.709337-2.342348 2.080382-5.910617 2.133593-8.306176 0.106424-2.422166-2.02717-2.981914-5.547343-1.331321-8.241708C440.960037 146.17136 477.273081 125.768681 515.530406 125.768681zM872.252901 536.921855c-0.586354 0-1.118474-0.106424-1.677199-0.106424C831.705416 705.106322 683.175591 830.644503 505.09473 830.644503c-182.979428 0-334.916862-132.473127-368.595916-307.724547-32.745798-5.894244-57.665351-34.671661-57.665351-69.477374l0-139.300626c0-39.045271 31.309076-70.703295 69.965491-70.703295 21.804608 0 41.052998 10.29446 53.858652 26.110681 30.934546-81.82254 93.922113-147.803277 173.627433-182.610014 0.191358 0.415462 1.700735 3.348258 3.514033 5.685489 1.257643 1.620917 2.660596 2.952238 3.868097 2.952238 1.251503 0 2.396583-0.453325 3.381004-1.147126-18.450211 13.735839-85.086887 84.33271-99.516528 182.853561-6.336312 43.366693 26.143427 85.932138 63.975057 92.973508 60.727083 11.308557 121.134895 24.189935 181.861978 35.284621 38.603203 7.04137 64.987107 28.217668 81.120552 63.475683 3.780093 8.241708 9.238408 24.910343 11.741415 48.940642 0.665149 3.573385 3.593851 6.320962 7.348362 6.320962 2.503007 0 4.632507-1.280156 6.043646-3.120061l1.677199 1.039679c23.934109-34.751478 71.403237-111.695918 78.218456-192.827727 7.827269-92.76066 3.460822-156.289556-67.542302-221.285872-0.079818-0.079818-0.186242-0.186242-0.292666-0.267083-0.985444-1.066285-1.570775-2.453888-1.570775-3.973498 0-2.000564 1.065262-3.707438 2.609431-4.747117 0.585331-0.240477 1.171686-0.559748 1.757017-0.800225 0.478907-0.106424 0.931209-0.267083 1.411139-0.267083 0.479931 0 0.905626 0.159636 1.331321 0.267083 1.01205 0.533143 1.969864 1.147126 2.955308 1.680269 71.802326 39.552831 126.884852 105.615433 152.336524 185.066973 10.302647-15.308661 26.436092-26.323529 45.178969-30.163997-30.057573-136.713708-151.990646-222.272339-303.050084-235.261165-9.052167 22.456455-31.335682 38.405705-57.505715 38.405705-34.183544 0-61.898769-27.070542-61.898769-60.435441s27.714202-60.408835 61.898769-60.408835c27.554566 0 50.637284 17.709337 58.650795 42.032302 174.859493 14.21577 315.02993 118.150934 344.289324 279.640931 25.850761 10.80202 44.007283 36.165688 44.007283 65.769936L944.083879 465.57797C944.081833 504.970142 911.920342 536.921855 872.252901 536.921855zM807.744701 496.435769C762.140037 619.973386 643.960451 708.226383 504.935094 708.226383c-138.440026 0-256.192893-87.505983-302.224276-210.243375-2.289136 2.800789-4.978385 5.200442-7.614421 7.627724C221.160006 655.179212 349.882716 768.9023 505.09473 768.9023c154.467047 0 282.789645-112.602567 309.705668-261.131369C812.137755 504.196523 809.68796 500.462478 807.744701 496.435769zM376.292202 86.936257c-0.00307 0.001023-0.005117 0.002047-0.008186 0.00307C376.255363 86.874859 376.25434 86.866672 376.292202 86.936257z"  horiz-adv-x="1024" />

    
    <glyph glyph-name="tishicuowu" unicode="&#59134;" d="M512.260431 890.883469C231.865323 890.883469 4.636089 663.623535 4.636089 383.259126c0-280.33371 227.229235-507.624343 507.624343-507.624343 280.396131 0 507.625366 227.291656 507.624343 507.624343C1019.885797 663.623535 792.656563 890.883469 512.260431 890.883469zM691.775968 248.669802c12.393261-12.393261 12.393261-32.502251 0-44.893466-12.391215-12.393261-32.531927-12.393261-44.923142 0L512.446673 338.209094l-135.333268-135.332245c-12.516058-12.485359-32.718169-12.485359-45.235251 0-12.516058 12.485359-12.516058 32.718169 0 45.205575L467.211423 383.444345 332.745918 517.880173c-12.393261 12.362562-12.393261 32.469506 0 44.833091 12.392238 12.393261 32.531927 12.393261 44.86379 0l134.465504-134.404106 136.325875 136.324852c12.516058 12.486382 32.718169 12.486382 45.234227 0 12.516058-12.486382 12.516058-32.718169 0-45.203528l-136.324852-136.355551L691.775968 248.669802z"  horiz-adv-x="1024" />

    
    <glyph glyph-name="nan1" unicode="&#58977;" d="M954.418 760.601c0.093 9.733-3.424 19.304-9.797 26.662-6.823 7.866-16.619 12.837-26.993 13.695-0.143 0.016-0.289 0.029-0.432 0.044L684.744 817.837c-22.091 1.596-41.315-15.019-42.918-37.12-1.602-22.105 15.019-41.32 37.124-42.922l144.701-10.482L651.691 556.01c-61.707 55.677-143.442 89.573-233.098 89.573-192.249 0-348.093-155.845-348.093-348.09s155.845-348.091 348.093-348.091c192.243 0 348.087 155.846 348.087 348.091 0 73.632-22.859 141.916-61.868 198.156l161.967 161.355-9.13-130.178c-1.553-22.105 15.116-41.282 37.222-42.834 0.955-0.063 1.905-0.099 2.851-0.099 20.881 0 38.499 16.169 39.983 37.32l16.624 236.958C954.384 758.979 954.408 759.794 954.418 760.601 954.423 760.896 954.418 760.464 954.418 760.601L954.418 760.601zM665.416 193.261c-13.489-31.883-32.813-60.534-57.436-85.16-24.623-24.623-53.272-43.946-85.159-57.436-32.969-13.94-68.036-21.011-104.233-21.011-36.194 0-71.258 7.07-104.228 21.011-31.888 13.489-60.537 32.813-85.161 57.436-24.627 24.626-43.95 53.277-57.435 85.16-13.945 32.969-21.013 68.042-21.013 104.232 0 36.192 7.068 71.259 21.013 104.229 13.485 31.887 32.808 60.537 57.435 85.164 24.624 24.624 53.273 43.947 85.161 57.431 32.97 13.945 68.034 21.014 104.228 21.014 36.197 0 71.264-7.068 104.233-21.014 31.887-13.484 60.536-32.808 85.159-57.431 24.623-24.627 43.946-53.277 57.436-85.164 13.945-32.971 21.014-68.037 21.014-104.229C686.43 261.303 679.361 226.229 665.416 193.261L665.416 193.261zM665.416 193.261"  horiz-adv-x="1024" />

    
    <glyph glyph-name="qunzhu" unicode="&#59023;" d="M359.954 342.94c0 22.643-18.357 41.005-41.004 41.005l0 0c-67.942 0-123.016 55.074-123.016 123.014 0 67.941 55.074 123.016 123.011 123.016l0.005 0c22.646 0 41.004 18.363 41.004 41.01 0 22.646-18.357 41.004-41.004 41.004l0 0c-113.236 0-205.03-91.794-205.03-205.03 0-62.347 27.837-118.186 71.751-155.793C94.267 303.16 31.91 207.32 31.91 96.904c0-22.646 18.357-41.004 41.005-41.004 22.646 0 41.005 18.357 41.005 41.004 0 113.23 91.794 205.025 205.03 205.025C341.597 301.93 359.954 320.293 359.954 342.94L359.954 342.94zM359.954 342.94M606 794c70.855 0 135.028-28.738 181.491-75.191 46.453-46.458 75.187-110.631 75.187-181.491 0-70.855-28.733-135.057-75.187-181.491-11.643-11.638-24.384-22.154-38.072-31.386 54.225-20.511 102.907-52.276 143.198-92.451 73.47-73.304 118.923-174.484 118.923-286.138 0-19.287-15.649-34.938-34.96-34.938-19.283 0-34.934 15.65-34.934 34.938 0 92.508-37.527 176.21-98.19 236.715-60.644 60.479-144.446 97.946-237.038 98.068L606 280.635l-0.023 0-0.398 0c-92.63-0.122-176.433-37.59-237.058-98.068-60.663-60.505-98.19-144.207-98.19-236.715 0-19.287-15.65-34.938-34.956-34.938-19.287 0-34.938 15.65-34.938 34.938 0 111.653 45.454 212.834 118.942 286.138 40.254 40.175 88.937 71.94 143.161 92.451-13.67 9.231-26.411 19.748-38.048 31.386-46.439 46.435-75.173 110.636-75.173 181.491 0 70.86 28.733 135.033 75.173 181.491C470.943 765.262 535.121 794 606 794L606 794 606 794zM738.063 669.38c-33.792 33.792-80.494 54.727-132.063 54.727-51.573 0-98.294-20.934-132.086-54.727-33.792-33.792-54.722-80.489-54.722-132.063 0-51.573 20.93-98.27 54.722-132.086 33.693-33.689 80.25-54.581 131.664-54.703l0.398 0L606 350.528l0.398 0c51.409 0.122 97.966 21.014 131.659 54.703 33.797 33.816 54.727 80.513 54.727 132.086C792.784 588.891 771.854 635.588 738.063 669.38L738.063 669.38zM738.063 669.38"  horiz-adv-x="1024" />

    
    <glyph glyph-name="gonggao" unicode="&#58951;" d="M16.870208 585.644008 136.053308 585.644008l0-268.76189L16.870208 316.882117 16.870208 585.644008 16.870208 585.644008zM403.215425 195.299357 282.432552 195.299357l0 0c0 0 17.597505-157.577656 145.579357-323.154178 0 0 111.184234-4.799319 127.981853 40.794216 0 0 11.998299 30.39569-23.996597 69.590132C520.798752 0.926919 420.013043 86.514782 403.215425 195.299357L403.215425 195.299357zM835.954064 894.400227C619.184802 636.036862 204.843554 620.839017 204.843554 620.839017l0-343.951229c490.330473-22.396824 632.710284-207.170624 632.710284-207.170624 189.573119 47.193308 169.575955 382.345785 169.575955 382.345785C1021.527751 939.193875 835.954064 894.400227 835.954064 894.400227L835.954064 894.400227zM835.954064 894.400227"  horiz-adv-x="1024" />

    
    <glyph glyph-name="guanyuyouxinwuliu" unicode="&#59462;" d="M868.409713 555.758169c-17.907465 42.466274-43.591886 80.532427-76.336964 113.277506S721.261517 727.362846 678.795243 745.270311c-43.898871 18.623763-90.560608 28.037973-138.654942 28.037973-48.094334 0-94.756071-9.41421-138.654942-28.037973-42.466274-17.907465-80.532427-43.591886-113.277506-76.336964s-58.429499-70.811232-76.336964-113.277506c-18.623763-43.898871-28.037973-90.560608-28.037973-138.654942 0-48.094334 9.41421-94.756071 28.037973-138.654942 17.907465-42.466274 43.591886-80.532427 76.336964-113.277506S359.019087 106.741281 401.48536 88.833816c43.898871-18.623763 90.560608-28.037973 138.654942-28.037973 48.094334 0 94.756071 9.41421 138.654942 28.037973 42.466274 17.907465 80.532427 43.591886 113.277506 76.336964s58.429499 70.811232 76.336964 113.277506c18.623763 43.898871 28.037973 90.560608 28.037973 138.654942C896.447687 465.095233 886.931148 511.75697 868.409713 555.758169zM752.778655 204.362546c-56.792245-56.792245-132.310583-88.104727-212.638353-88.104727-80.327771 0-155.846108 31.312481-212.638353 88.104727-56.792245 56.792245-88.104727 132.310583-88.104727 212.638353 0 80.327771 31.312481 155.846108 88.104727 212.638353 56.792245 56.792245 132.310583 88.104727 212.638353 88.104727 80.327771 0 155.846108-31.312481 212.638353-88.104727 56.792245-56.792245 88.104727-132.310583 88.104727-212.638353C840.883382 336.673129 809.5709 261.154792 752.778655 204.362546zM545.154392 598.940741c-21.386629 0-38.680124-17.395823-38.680124-38.782452s17.293495-38.577796 38.680124-38.577796 38.782452 17.191166 38.782452 38.577796S566.541021 598.940741 545.154392 598.940741zM543.005496 491.393624c-16.781853 0-31.210153-12.381733-31.210153-27.730988l0-257.253523c0-15.246927 14.4283-27.730988 31.210153-27.730988s30.391526 12.381733 30.391526 27.730988L573.397022 463.764965C573.397022 479.011892 559.787349 491.393624 543.005496 491.393624z"  horiz-adv-x="1024" />

    
    <glyph glyph-name="dingdan2" unicode="&#58891;" d="M598.857 767.255h-174.127c-21.365 0-38.435-18.59-38.435-41.567 0-23.026 17.112-41.668 38.435-41.668h175.198c20.283 0 37.384 18.642 37.384 41.668 0.011 22.975-17.082 41.567-38.456 41.567v0 0zM699.855 725.484c0-54.14-9.942-83.541-62.655-83.541l-250.621-0c-52.478 0-62.655 38.701-62.655 83.541h-83.542c-35.182 0-62.655-25.749-62.655-62.656v-563.898c0-41.403 22.537-62.656 62.655-62.656h543.013c33.469 0 62.656 20.406 62.656 62.656l0 563.898c0 40.761-23.333 62.656-62.656 62.656l-83.541 0zM679.379 203.439h-330.816c-12.187 0-24.353 12.513-24.353 22.72 0 10.178 10.3 18.896 22.496 18.896h329.858c12.187 0 22.487-7.922 23.414-18.896 0-10.219-8.413-22.72-20.599-22.72v0 0zM674.994 349.797h-331.367c-12.217 0-19.988 10.964-19.988 21.181 0 10.207 10.32 20.426 22.527 20.426h330.419c12.216 0 22.536-9.464 23.455-20.426 0-10.218-12.861-21.181-25.046-21.181v0 0zM674.994 495.942h-331.367c-12.217 0-19.988 10.962-19.988 21.17 0 10.219 10.32 20.436 22.527 20.436h330.419c12.216 0 22.536-9.464 23.455-20.436 0-10.207-12.861-21.17-25.046-21.17v0 0zM674.994 495.942z"  horiz-adv-x="1024" />

    
    <glyph glyph-name="xingxing" unicode="&#59084;" d="M893.456828 186.944995M491.889987 558.060291M568.154951 557.006286M972.917578 504.347972c-7.324826 23.010063-28.66997 40.47483-63.432705 51.907207-0.455371 0.155543-0.910743 0.289596-1.376347 0.403183l-188.768271 48.161906c-40.930201 58.694797-81.911568 117.368104-122.892935 176.052668-0.165776 0.227174-0.538259 0.765433-0.714268 0.99363-19.720134 25.927509-44.292785 40.215934-69.175499 40.215934-17.98256 0-44.354184-7.294127-68.110237-42.337247L353.318978 619.181347c-47.076178-13.419637-94.151333-26.89044-141.258211-40.361243l-68.843948-19.689435c-32.063253-9.787924-52.321646-25.637913-60.205197-47.106878-8.277524-22.554692-2.462075-48.855708 17.805528-80.411401 0.48607-0.765433 1.02433-1.500167 1.603521-2.192945 41.189098-48.999994 82.356706-98.052177 123.544781-147.165758-2.111081-70.758554-4.263094-141.599995-6.445806-212.43018-3.13541-33.915437 2.079358-57.814754 15.932878-73.065086 10.501168-11.55722 25.099654-17.412578 43.392276-17.412578 14.019295 0 30.645974 3.445472 53.076846 11.112082l181.773973 69.568449c68.586075-24.054859 137.254014-48.038086 206.749808-72.279187 13.563924-4.107551 26.123984-6.186909 37.33942-6.186909 25.576515 0 68.99949 11.059893 72.465428 85.170798 0.030699 0.7552 0.030699 1.5104-0.020466 2.2656-3.797489 63.153342-7.646144 126.173654-11.484565 189.223642l-0.052189 0.827855L952.576297 428.322461C973.237873 456.26793 980.076628 481.854679 972.917578 504.347972zM918.909523 454.054519 780.434705 278.994458c-3.238764-4.097318-4.852518-9.229199-4.5312-14.443967l0.538259-8.918114c3.817955-62.646805 7.646144-125.273145 11.422144-188.023304-2.338255-43.671639-20.361747-43.671639-30.077016-43.671639-7.055696 0-15.488763 1.469468-24.220634 4.087085-71.099315 24.831548-142.168953 49.65184-213.175147 74.566276-4.738931 1.645476-9.891278 1.572822-14.57802-0.206708l-188.292434-72.082712c-16.926508-5.773494-29.579689-8.577353-38.674834-8.577353-8.81476 0-11.153014 2.576685-12.033058 3.538593-2.441609 2.690272-7.822153 12.084223-5.03876 41.219797 0.040932 0.455371 0.072655 0.910743 0.082888 1.366114 2.275833 73.769121 4.510734 147.528008 6.704702 221.204008 0.155543 5.194302-1.603521 10.263761-4.945639 14.246469-42.61661 50.841945-85.23322 101.601003-127.848807 152.318104-11.721973 18.550495-16.21224 32.984229-12.974499 41.798988 3.817955 10.397814 19.937075 17.258059 32.435737 21.074991l68.481697 19.585057c49.641607 14.195304 99.220792 28.380374 148.821467 42.513256 4.89345 1.396813 9.125845 4.510734 11.908214 8.773827l109.267613 166.885891c7.253194 10.697643 18.84009 23.455201 32.849152 23.455201 11.329023 0 23.920806-8.349155 35.146475-23.103184 42.481534-60.826344 84.96409-121.641431 127.384225-182.478008 2.907213-4.169973 7.211239-7.160073 12.136412-8.411577l195.679681-49.931203c20.133549-6.714935 32.777521-15.33322 35.632545-24.283056C935.25684 482.931197 930.270269 469.449137 918.909523 454.054519z"  horiz-adv-x="1024" />

    
    <glyph glyph-name="guanzhu1" unicode="&#58908;" d="M823.778 261.94c0 0-84.184 11.956-95.758 13.626-0.816 0.127-1.351 0.204-1.377 0.204-6.195 1.389-11.307 5.29-14.353 10.517-0.102 0.241-2.651 5.238-6.374 12.606-11.765 23.353-35.807 71.079-35.807 71.079-2.97 6.527-9.624 11.090-17.349 11.090-7.801 0-14.469-4.563-17.387-11.090 0 0-3.352-6.59-8.056-15.934-12.020-23.761-33.282-65.814-33.36-65.981-2.868-6.182-8.553-10.822-15.513-12.262-0.268-0.051-97.338-13.78-97.338-13.78-8.35-1.976-14.544-9.268-14.544-18.038 0-5.009 2.026-9.547 5.354-12.888 0 0 68.771-65.571 69.014-65.802 3.836-3.901 6.22-9.165 6.22-14.989 0-1.275-0.191-2.537-0.395-3.8-0.051-0.178-7.47-42.488-12.212-69.319-2.167-12.417-3.774-21.517-3.774-21.517s-0.395-2.55-0.395-3.8c0-10.274 8.503-18.585 19.006-18.585 2.549 0 4.946 0.51 7.164 1.403 0 0 64.106 33.039 82.717 42.499 2.995 1.529 4.908 2.498 5.111 2.575 2.549 1.007 5.328 1.593 8.248 1.593 2.868 0 5.545-0.574 8.043-1.517 0.229-0.076 2.193-1.070 5.252-2.65 18.764-9.535 82.183-42.385 82.679-42.563 2.232-0.906 4.691-1.441 7.241-1.441 10.504 0 19.044 8.311 19.044 18.585 0 0.332-1.86 11.219-4.334 25.419-4.921 28.235-12.212 69.944-12.289 70.632-0.076 0.778-0.229 1.543-0.229 2.332 0 5.724 2.32 10.913 6.055 14.787 0.14 0.127 7.749 7.394 17.808 16.966 20.421 19.452 51.103 48.656 51.103 48.656l0.241 0.23c3.352 3.366 5.482 7.929 5.482 13.015 0.003 8.898-6.37 16.317-14.936 18.14v0zM449.327 209.471c-9.293 9.255-14.392 21.53-14.392 34.52 0 22.918 15.934 42.665 38.752 48.057 0.943 0.229 1.913 0.407 2.881 0.548 24.806 3.506 57.757 8.183 78.216 11.076l34.087 67.166c3.913 2.052 7.457 4.678 11.217 6.96 30.058 18.369 55.246 43.774 72.838 74.419 17.54 30.543 27.878 65.725 27.878 103.418 0 114.981-93.374 208.52-208.112 208.52-114.764 0-208.124-93.539-208.124-208.52 0-37.693 10.351-72.876 27.89-103.418 19.809-34.519 48.924-62.997 84.234-81.481-1.988-0.407-4.041-0.51-5.991-1.020-13.334-3.366-25.852-8.655-37.847-15.169-11.893-6.462-22.652-14.417-32.951-22.97-15.78-10.771-30.899-22.664-44.692-36.495-52.723-52.787-83.775-109.882-89.155-183.586-0.128-1.835-8.578-26.030 26.107-26.107h287.169c7.725 43.876 14.074 54.023 15.437 61.673-14.697 14.008-64.921 61.9-64.921 61.9-0.178 0.178-0.357 0.357-0.535 0.51l0.013-0zM449.327 209.471z"  horiz-adv-x="1024" />

    
    <glyph glyph-name="liuyan1" unicode="&#59208;" d="M512 830.464C230.4 830.464 2.048 638.976 2.048 403.456c0-99.328 39.936-190.464 107.52-262.144l0 0c0 0-5.12-180.224-43.008-203.776 0 0 138.24 0 226.304 79.872 66.56-26.624 140.288-40.96 219.136-40.96 281.6 0 509.952 191.488 509.952 427.008C1021.952 638.976 793.6 830.464 512 830.464zM512 17.408c-71.68 0-140.288 13.312-203.776 37.888-5.12 2.048-10.24 3.072-15.36 3.072-10.24 0-19.456-4.096-27.648-10.24-38.912-35.84-91.136-53.248-132.096-61.44 4.096 16.384 7.168 34.816 9.216 56.32 5.12 39.936 7.168 77.824 7.168 92.16 2.048 12.288-2.048 24.576-10.24 33.792-63.488 67.584-97.28 148.48-97.28 234.496 0 212.992 210.944 386.048 468.992 386.048 259.072 0 468.992-173.056 468.992-386.048C980.992 190.464 771.072 17.408 512 17.408zM705.536 561.152 318.464 561.152c-11.264 0-20.48-9.216-20.48-20.48s9.216-20.48 20.48-20.48l387.072 0c11.264 0 20.48 9.216 20.48 20.48S716.8 561.152 705.536 561.152zM705.536 404.48 318.464 404.48c-11.264 0-20.48-9.216-20.48-20.48s9.216-20.48 20.48-20.48l387.072 0c11.264 0 20.48 9.216 20.48 20.48S716.8 404.48 705.536 404.48zM705.536 247.808 318.464 247.808c-11.264 0-20.48-9.216-20.48-20.48s9.216-20.48 20.48-20.48l387.072 0c11.264 0 20.48 9.216 20.48 20.48S716.8 247.808 705.536 247.808z"  horiz-adv-x="1024" />

    
    <glyph glyph-name="jiantou" unicode="&#58943;" d="M321.11809 830.387653 257.085728 766.990764 638.078998 383.384993 253.882779 3.007753 317.372789-60.917162 765.594207 382.862084Z"  horiz-adv-x="1024" />

    
    <glyph glyph-name="dunpai" unicode="&#58949;" d="M859.553531 672.53265c-131.266167 0.273397-251.874989 45.271187-347.712244 120.449085-95.882309-75.019185-216.28634-120.176713-347.417344-120.449085-87.404969-286.237962 63.019433-593.928847 347.531004-697.515408C796.534098 78.603803 946.982051 386.294688 859.553531 672.53265zM201.448179 381.817948l310.551821 0L512 735.019625c92.522706-64.419182 199.064407-101.307233 311.691485-107.939403 19.76237-82.987619 18.331902-166.81181-1.178574-245.262275L512 381.817948 512 24.873707c-0.015359-0.006144-0.029695-0.012287-0.045054-0.018431C352.376368 88.859756 240.559241 224.535082 201.448179 381.817948z"  horiz-adv-x="1024" />

    
    <glyph glyph-name="icon02" unicode="&#59035;" d="M954.304 551.936l-52.8 7.488L675.84 354.368c-7.872-7.168-20.096-6.592-27.2 1.28-7.168 7.872-6.592 20.096 1.28 27.2l201.984 183.552L829.696 569.6c-14.016 1.984-28.544 6.4-43.072 11.776L532.8 350.784C515.456 335.04 488.576 336.32 472.832 353.664 457.024 371.072 458.304 397.952 475.712 413.696l232.832 211.52c-32.32 24.832-59.968 55.104-75.52 86.4L576.96 824.32C543.36 891.776 488.768 891.648 455.616 823.936L400.32 710.912C367.168 643.2 278.976 578.752 204.416 567.68L80 549.184c-74.56-11.072-91.264-63.04-37.12-115.456l90.368-87.552c54.144-52.48 88.192-156.16 75.712-230.528l-20.864-124.096c-12.544-74.304 31.744-106.304 98.368-70.976l111.232 58.88c66.624 35.264 175.808 35.648 242.624 0.768l111.552-58.24c66.816-34.88 110.912-2.624 97.92 71.616l-21.632 123.968c-12.992 74.24 20.416 178.176 74.24 230.976l89.856 88.128C1045.952 489.408 1028.928 541.312 954.304 551.936z"  horiz-adv-x="1024" />

    
    <glyph glyph-name="shenfenzheng" unicode="&#58888;" d="M699.129958 709.401138l229.264591 0c12.737092 0 25.474185-8.491395 25.474185-25.474185l0 0 0-590.143755c0-12.737092-12.737092-25.474185-25.474185-25.474185l0 0L699.129958 68.309014l0 50.947346 203.790406 0L902.920364 658.453792 699.129958 658.453792 699.129958 709.401138 699.129958 709.401138zM699.129958 238.135888l144.351666 0c12.737092 0 21.228487 8.491395 21.228487 16.98279 0 12.737092-8.491395 21.228487-21.228487 21.228487L699.129958 276.347165 699.129958 238.135888 699.129958 238.135888zM699.129958 361.259066l144.351666 0c12.737092 0 21.228487 8.491395 21.228487 21.228487 0 12.737092-8.491395 21.228487-21.228487 21.228487L699.129958 403.716041 699.129958 361.259066 699.129958 361.259066zM699.129958 488.627942l144.351666 0c12.737092 0 21.228487 8.491395 21.228487 21.228487s-8.491395 21.228487-21.228487 21.228487L699.129958 531.084916 699.129958 488.627942zM329.759399 709.401138l369.370559 0 0-50.947346L329.759399 658.453792 329.759399 709.401138 329.759399 709.401138zM699.129958 68.310038 329.759399 68.310038l0 50.947346 369.370559 0L699.129958 68.310038 699.129958 68.310038zM699.129958 531.084916l0-42.455951L554.778292 488.628966c-8.491395 0-16.98279 8.491395-16.98279 21.228487s8.491395 21.228487 16.98279 21.228487L699.129958 531.08594 699.129958 531.084916zM699.129958 403.715017l0-42.455951L554.778292 361.259066c-8.491395 0-16.98279 8.491395-16.98279 21.228487 0 12.737092 8.491395 21.228487 16.98279 21.228487L699.129958 403.716041 699.129958 403.715017zM699.129958 276.346141l0-38.211277L554.778292 238.134865c-8.491395 0-16.98279 8.491395-16.98279 16.98279 0 12.737092 8.491395 21.228487 16.98279 21.228487L699.129958 276.346141 699.129958 276.346141zM329.759399 233.89019l0 42.455951 97.650017 0 0 21.228487 0 0 0 0c0 8.491395-4.245697 16.98279-12.737092 21.228487-12.737092 8.491395-25.474185 12.737092-38.210253 12.737092l0 0 0 0-46.701648 0 0 46.701648 0 0 0 0c21.228487 0 38.211277 8.491395 55.193043 25.474185 12.737092 12.737092 21.228487 33.965579 21.228487 55.193043l0 0 0 0 0 0 0 0c0 21.228487-8.491395 42.455951-21.228487 55.193043-16.98279 12.737092-33.965579 21.228487-55.193043 21.228487l0 0 0 0 0 42.455951 0 0 0 0c29.719882 0 59.438741-12.737092 84.912925-33.965579 21.228487-21.228487 33.965579-50.947346 33.965579-84.912925l0 0 0 0 0 0 0 0c0-33.965579-12.737092-63.684438-33.965579-84.912925-4.245697-4.245697-4.245697-4.245697-8.491395-4.245697 12.737092-4.245697 25.474185-8.491395 33.965579-16.98279 16.98279-12.737092 25.474185-33.965579 29.719882-55.193043l0 0 0 0 0-42.456974 0-21.228487-21.228487 0L329.759399 233.888144zM92.003414 709.401138l237.755985 0 0-50.947346L117.476575 658.453792l0-539.196409 212.281801 0 0-50.947346L92.003414 68.310038c-12.737092 0-25.474185 12.737092-25.474185 25.474185L66.529229 683.927977C66.529229 700.910767 79.266321 709.401138 92.003414 709.401138L92.003414 709.401138zM329.759399 577.786565 329.759399 577.786565 329.759399 577.786565c-33.965579 0-63.684438-12.737092-84.912925-33.965579-25.474185-21.228487-38.210253-50.947346-38.210253-84.912925l0 0 0 0 0 0 0 0c0-33.965579 12.737092-63.684438 38.210253-84.912925 0 0 0-4.245697 4.245697-4.245697-12.737092-4.245697-21.228487-8.491395-33.965579-16.98279l4.245697 0c-21.228487-12.737092-29.719882-33.965579-29.719882-55.193043l0 0 0 0 0-42.456974 0-21.228487 21.228487 0 118.877481 0 0 42.455951L227.863684 276.344095l0 21.228487 0 0 0 0c0 8.491395 8.491395 16.98279 12.737092 21.228487l0 0c12.737092 8.491395 25.474185 12.737092 38.210253 12.737092l0 0 0 0 50.947346 0 0 46.701648 0 0 0 0c-25.474185 0-42.455951 8.491395-55.193043 25.474185-16.98279 12.737092-25.474185 33.965579-25.474185 55.193043l0 0 0 0 0 0 0 0c0 21.228487 8.491395 42.455951 25.474185 55.193043 12.737092 12.737092 29.719882 21.228487 55.193043 21.228487l0 0 0 0L329.758376 577.786565z"  horiz-adv-x="1024" />

    
    <glyph glyph-name="shipin" unicode="&#59065;" d="M1086.060603 678.787888 1086.060603 705.040418C1086.060603 810.525231 1003.345523 896.000009 899.878785 896.000009L187.345119 896.000009C83.875183 896.000009-3.0e-06 810.525234-3.0e-06 705.040421L-3.0e-06 62.964516C-3.0e-06-42.500617 83.875183-127.999991 187.345119-127.999991L899.878785-127.999991C1003.345523-127.999991 1086.060603-42.498994 1086.060603 62.964497L1086.060603 89.212131C1086.060603 89.212131 1341.465823-41.190338 1372.527746-20.627658 1403.580081-0.076452 1405.030062 770.101743 1372.526148 791.666405 1340.014244 813.252384 1086.060603 678.787888 1086.060603 678.787888ZM93.090906 710.046762C93.090906 761.333215 134.689159 802.9091 186.00438 802.9091L900.056219 802.9091C951.370913 802.9091 992.969694 761.322529 992.969694 709.639409L992.969694 525.12844C992.969694 525.12844 1075.543208 580.797704 1148.121209 616.727282 1220.69921 652.656858 1294.905183 675.731602 1294.905183 675.731602 1294.905183 675.731602 1308.668677 554.231603 1308.668677 369.071296 1308.668677 181.788535 1294.905183 94.079494 1294.905183 94.079494 1294.905183 94.079494 1230.967827 109.849426 1148.121209 151.272737 1065.274591 192.696044 992.969694 244.363646 992.969694 244.363646L992.969694 58.084693C992.969694 6.725648 951.371441-34.909082 900.056219-34.909082L186.00438-34.909082C134.689685-34.909082 93.090906 6.638452 93.090906 57.953255L93.090906 710.046762ZM821.370868 336.487551C708.117032 267.749571 594.863197 199.011595 481.609362 130.273615 385.203759 71.761461 385.203759 167.812046 385.203759 167.812046L385.203759 616.048127C385.203759 616.048127 385.203759 712.098716 491.311467 647.697989 580.639859 593.481253 726.774759 504.786531 821.341466 447.390469 875.481169 414.53106 912.71891 390.649356 821.370868 336.487551Z"  horiz-adv-x="1397" />

    
    <glyph glyph-name="liulan1" unicode="&#58944;" d="M510.557 691.646c-302.839 0-458.323-306.151-458.323-306.151s117.33-306.19 458.323-306.19c308.802 0 458.301 304.995 458.301 304.995s-150.691 307.345-458.301 307.345v0 0zM511.246 194.134c-110.73 0-190.773 83.726-190.773 191.364 0 107.648 80.049 191.352 190.773 191.352 110.724 0 190.764-83.697 190.764-191.352 0.001-107.639-80.039-191.364-190.764-191.364v0 0zM511.246 500.324c-63.286-0.145-114.461-53.321-114.461-114.827 0-61.473 51.176-114.821 114.461-114.821 63.282 0 114.454 53.352 114.454 114.821 0.004 61.527-51.17 114.946-114.454 114.827v0 0z"  horiz-adv-x="1024" />

    
    <glyph glyph-name="nv1" unicode="&#58981;" d="M598.058159 707.101829c-138.75727 0-251.727791-112.765864-251.727791-251.523134 0-138.552613 112.868192-251.420805 251.727791-251.420805 138.859598 0 251.830119 112.765864 251.830119 251.420805C849.990607 594.335965 736.917758 707.101829 598.058159 707.101829L598.058159 707.101829zM598.058159 96.917758c-88.51404 0-169.455781 32.233437-232.183072 85.444189L314.199261 130.68612l84.830219-84.830219-75.927651-75.825322-84.830219 84.830219-98.439892-98.235235-75.927651 75.825322 98.337564 98.235235-89.844309 89.741981 75.927651 75.825322 89.844309-89.741981 57.099231 56.996902c-35.507944 55.666633-56.382932 121.463775-56.382932 192.070351 0 197.800739 161.064855 358.660937 359.172579 358.660937 198.107725 0 359.274908-160.860198 359.274908-358.660937C957.333067 257.880284 796.165884 96.917758 598.058159 96.917758L598.058159 96.917758z"  horiz-adv-x="1024" />

    
    <glyph glyph-name="fangzi" unicode="&#58979;" d="M817.787727 441.61663l-291.665001 247.045373c-19.853688 16.78353-48.917849 17.192884-69.180891 0.818709L165.788527 454.204277c-9.722167-7.777733-11.154907-22.002798-3.377174-31.622626 7.777733-9.722167 22.002798-11.154907 31.622626-3.377174L485.289626 654.480911c3.479512 2.763142 8.391765 2.763142 11.768939-0.102339l291.665001-247.045373c4.195882-3.581851 9.415151-5.321607 14.532081-5.321607 6.344993 0 12.689986 2.660804 17.192884 7.982411C828.430941 419.306816 827.202878 433.531881 817.787727 441.61663zM730.697581 383.28363c-12.485309 0-22.514491-10.029182-22.514491-22.514491l0-220.027983c0-5.11693-4.093544-9.210474-9.210474-9.210474l-93.128123 0c-5.11693 0-9.210474 4.093544-9.210474 9.210474L596.63402 292.202279c0 29.88287-24.356586 54.239456-54.239456 54.239456L430.845493 346.441735c-29.88287 0-54.239456-24.356586-54.239456-54.239456l0-151.461123c0-5.11693-4.093544-9.210474-9.210474-9.210474l-96.198281 0c-5.11693 0-9.210474 4.093544-9.210474 9.210474L261.986808 360.769139c0 12.485309-10.029182 22.514491-22.514491 22.514491s-22.514491-10.029182-22.514491-22.514491l0-220.027983c0-29.88287 24.356586-54.239456 54.239456-54.239456l96.198281 0c29.88287 0 54.239456 24.356586 54.239456 54.239456L421.635019 292.202279c0 5.11693 4.093544 9.210474 9.210474 9.210474l111.549071 0c5.11693 0 9.210474-4.093544 9.210474-9.210474l0-151.461123c0-29.88287 24.356586-54.239456 54.239456-54.239456l93.128123 0c29.88287 0 54.239456 24.356586 54.239456 54.239456L753.212073 360.769139C753.212073 373.254447 743.18289 383.28363 730.697581 383.28363z"  horiz-adv-x="1024" />

    
    <glyph glyph-name="cuowu" unicode="&#58920;" d="M918.795922 539.145313c-21.798121 51.476314-52.909055 97.631021-92.514092 137.236058-39.605037 39.605037-85.862083 70.818309-137.236058 92.514092C635.727364 791.409954 579.236458 802.871877 520.903458 802.871877s-114.823906-11.461923-168.142315-33.976414c-51.476314-21.798121-97.631021-52.909055-137.236058-92.514092s-70.818309-85.862083-92.514092-137.236058C100.496502 485.826904 89.034579 429.335998 89.034579 371.002998s11.461923-114.823906 33.976414-168.142315c21.798121-51.476314 52.909055-97.631021 92.514092-137.236058 39.605037-39.605037 85.862083-70.818309 137.236058-92.514092 53.21607-22.514491 109.809314-33.976414 168.142315-33.976414s114.823906 11.461923 168.142315 33.976414c51.476314 21.798121 97.631021 52.909055 137.236058 92.514092 39.605037 39.605037 70.818309 85.862083 92.514092 137.236058 22.514491 53.21607 33.976414 109.809314 33.976414 168.142315S941.310414 485.826904 918.795922 539.145313zM520.903458-15.836898c-213.273636 0-386.839896 173.56626-386.839896 386.839896s173.56626 386.839896 386.839896 386.839896 386.839896-173.56626 386.839896-386.839896S734.177094-15.836898 520.903458-15.836898zM545.055367 368.444533l105.204078 105.204078c8.801119 8.801119 8.801119 23.128523 0 31.827304l0 0c-8.801119 8.801119-23.128523 8.801119-31.827304 0L513.228063 400.271837 407.512293 505.885269c-8.801119 8.801119-23.128523 8.801119-31.827304 0l0 0c-8.801119-8.801119-8.801119-23.128523 0-31.827304l105.613432-105.613432L375.173296 262.319408c-8.801119-8.801119-8.801119-23.128523 0-31.827304 8.801119-8.801119 23.128523-8.801119 31.827304 0l106.125125 106.125125 105.613432-105.613432c8.801119-8.801119 23.128523-8.801119 31.827304 0 8.801119 8.801119 8.801119 23.128523 0 31.827304L545.055367 368.444533z"  horiz-adv-x="1024" />

    
    <glyph glyph-name="heilongjiangtubiao" unicode="&#58973;" d="M218.624-1.024000000000001c-13.312 0-24.128 11.392-24.128 25.344l0 68.48c0 137.088 78.592 258.624 200.256 309.696l13.76 5.76L396.8 417.92C351.168 455.616 324.928 511.936 324.928 572.352c0 108.416 84.032 196.608 187.264 196.608s187.2-88.192 187.2-196.608c0-60.416-26.176-116.736-71.808-154.496l-11.712-9.6 13.76-5.76c121.664-51.072 200.256-172.608 200.256-309.696l0-68.48c0-13.952-10.816-25.344-24.128-25.344L218.624-1.024000000000001 218.624-1.024000000000001 218.624-1.024000000000001zM88.128 101.82399999999996C74.816 101.82399999999996 64 113.15200000000004 64 127.03999999999996l0 52.992c0 99.584 52.032 189.632 135.68 235.136l9.856 5.376L202.048 429.248C176.128 459.264 161.856 497.92 161.856 538.1120000000001c0 85.824 65.6 157.952 146.944 162.112-8.128-12.672-11.648-23.936-14.08-35.456-69.76-9.344-106.048-65.344-106.048-128.832 0-62.336 18.624-83.072 52.736-101.568 9.92-8.448 10.24-12.864 10.944-18.048C252.032 409.856 248.64 404.672 244.416 402.624L233.92 399.232c-90.752-24.064-142.976-120.32-142.976-218.56l-0.128-48.384 52.096 0.64c-2.752-16.704-2.752-16.704-4.736-31.104L88.128 101.82399999999996 88.128 101.82399999999996 88.128 101.82399999999996zM885.824 101.82399999999996c-1.088 11.008-1.984 19.456-4.672 27.712l52.224 0 0 50.56c-2.944 102.912-51.2 199.744-146.368 221.824l-6.144 1.92c-5.056 2.624-5.568 7.552-5.888 12.608 0 10.176 4.8 11.2 14.848 15.168 34.816 37.568 45.696 62.784 45.696 106.496-11.072 90.112-43.904 110.336-102.784 127.616-6.016 20.032-4.992 16.704-17.6 34.496 81.344-4.096 147.008-76.224 147.008-162.112 0-40.192-14.272-78.848-40.192-108.864l-7.488-8.704 9.856-5.376C908.032 369.664 960 279.616 960 180.03200000000004l0-52.992c0-13.952-10.816-25.28-24.128-25.28L885.824 101.75999999999999 885.824 101.82399999999996 885.824 101.82399999999996zM885.824 101.82399999999996"  horiz-adv-x="1024" />

    
    <glyph glyph-name="cuohao" unicode="&#58913;" d="M834.844444 93.771852 544.142222 384.474074l290.702222 290.702222c7.395556 7.395556 7.395556 19.437037 0 26.832593-7.395556 7.395556-19.437037 7.395556-26.832593 0L517.30963 411.306667 226.702222 701.914074c-7.395556 7.395556-19.437037 7.395556-26.832593 0-7.395556-7.395556-7.395556-19.437037 0-26.832593l290.702222-290.702222L199.86963 93.771852c-7.395556-7.395556-7.395556-19.437037 0-26.832593s19.437037-7.395556 26.832593 0l290.702222 290.702222 290.702222-290.702222c7.395556-7.395556 19.437037-7.395556 26.832593 0C842.24 74.42963 842.24 86.376296 834.844444 93.771852z"  horiz-adv-x="1024" />

    
    <glyph glyph-name="wodeqianbao" unicode="&#58946;" d="M840.343655 546.893974l-27.863604 0 0 100.252285c0 30.971385-25.197892 56.169277-56.171324 56.169277L605.645308 703.315536l-19.203364 30.931476c-9.496282 15.275915-27.768437 20.521383-41.597397 11.938913l-69.061912-42.871413-262.416642 0c-1.456165 0-2.867304-0.182149-4.227278-0.497327-21.928429-0.335644-42.249243-10.832719-57.32152-29.659507-14.343683-17.916045-22.242584-41.49302-22.242584-66.389036 0-12.885472 2.131547-25.408693 6.161327-36.985356-0.394996-1.514493-0.627287-3.095501-0.627287-4.733814l0-511.199775c0-30.972409 25.197892-56.170301 56.169277-56.170301l649.066749 0c30.972409 0 56.169277 25.197892 56.169277 56.170301L896.513956 490.723673C896.512932 521.696082 871.316064 546.893974 840.343655 546.893974zM859.066065 246.928135l-74.087369 0c-21.157879 0-38.370913 17.207917-38.370913 38.359656 0 21.148669 17.213034 38.353516 38.370913 38.353516l74.087369 0L859.066065 246.928135zM756.308727 665.868669c10.32516 0 18.724457-8.399297 18.724457-18.72241l0-100.252285-72.281233 0-73.861218 118.974695L756.308727 665.868669zM557.456796 709.94042l101.219309-163.046447-344.526731 0c-2.077312 0.795109-4.324492 1.249457-6.681166 1.249457l-10.658757 0L557.456796 709.94042zM181.048961 649.75569c8.070816 10.080589 18.430768 15.632025 29.17139 15.632025l97.248881 0c1.433652 0 2.824325 0.176009 4.16588 0.480954l103.823624 0L227.114113 548.953889c-0.407276-0.252757-0.788969-0.532119-1.169639-0.810459l-15.725146 0c-10.741645 0-21.100574 5.551436-29.170366 15.632025-9.046027 11.30037-14.028505 26.569122-14.028505 42.993187C167.020456 623.189637 172.001911 638.456343 181.048961 649.75569zM840.343655 35.127288 191.276906 35.127288c-10.323113 0-18.72241 8.399297-18.72241 18.723434L172.554496 510.006855c1.459235-0.36532 2.986007-0.558725 4.558829-0.558725l663.23033 0c10.324136 0 18.72241-8.399297 18.72241-18.723434l0-129.635499-74.087369 0c-41.806151 0-75.81778-34.003442-75.81778-75.800383 0-41.800012 34.011628-75.806523 75.81778-75.806523l74.087369 0 0-155.630546C859.066065 43.526585 850.667791 35.127288 840.343655 35.127288zM798.753421 267.60199c10.042727 0 18.185174 8.147564 18.185174 18.198477 0 10.057053-8.141424 18.204617-18.185174 18.204617-10.070356 0-18.21178-8.147564-18.21178-18.204617C780.542664 275.749554 788.684088 267.60199 798.753421 267.60199z"  horiz-adv-x="1024" />

    
    <glyph glyph-name="yuyin" unicode="&#58992;" d="M509.419-103.447c-266.094 0-481.806 215.709-481.806 481.799 0 266.094 215.712 481.806 481.806 481.806 266.089 0 481.799-215.712 481.799-481.806C991.217 112.262 775.508-103.447 509.419-103.447zM509.419 801.913c-233.929 0-423.561-189.632-423.561-423.561s189.632-423.559 423.561-423.559 423.559 189.63 423.559 423.559S743.348 801.913 509.419 801.913zM549.649 659.768l-2.23-2.752c-11.7-13.76-10.67-34.055 1.89-46.785 60.89-61.235 98.56-145.865 98.56-239.269 0-92.03-36.635-175.28-95.98-236.519-12.385-12.73-13.245-32.86-1.89-46.45 13.07-15.65 36.81-16.51 50.915-2.06 72.76 73.97 117.485 175.46 117.485 287.439 0 112.325-45.07 213.979-118.175 288.119C586.289 676.111 562.729 675.078 549.649 659.768zM488.419 539.876c-12.045 16.34-35.78 18.235-50.23 4.13l-0.69-0.69c-12.04-11.695-13.59-30.445-3.785-44.035 26.835-36.64 42.835-81.705 42.835-130.56 0-45.24-13.59-87.38-36.985-122.3-9.29-14.11-6.71-33.03 6.195-44.04 15.135-12.9 38.36-9.8 49.54 6.71 30.79 45.93 48.85 101.145 48.85 160.49C544.149 433.401 523.509 492.228 488.419 539.876zM383.829 414.306c-9.115 12.212-24.25 19.78-39.39 19.78-15.14 0-30.272-7.568-39.39-19.78-9.117-12.215-12.042-28.9-7.74-43.345-4.302-14.625-1.38-31.14 7.74-43.35 9.115-12.215 24.25-19.78 39.39-19.78 15.14 0 30.275 7.565 39.39 19.78 9.12 12.21 12.04 28.9 7.74 43.35C395.869 385.406 392.949 402.091 383.829 414.306z"  horiz-adv-x="1024" />

    
    </font>
</defs>
</svg>
