<?xml version="1.0" standalone="no"?>
<!DOCTYPE svg PUBLIC "-//W3C//DTD SVG 1.1//EN" "http://www.w3.org/Graphics/SVG/1.1/DTD/svg11.dtd" >
<!--
2013-9-30: Created.
-->
<svg>
<metadata>
Created by iconfont
</metadata>
<defs>

<font id="iconfont" horiz-adv-x="1024" >
  <font-face
    font-family="iconfont"
    font-weight="500"
    font-stretch="normal"
    units-per-em="1024"
    ascent="896"
    descent="-128"
  />
    <missing-glyph />
    
    <glyph glyph-name="ceshi" unicode="&#59028;" d="M199.111111-128c-62.577778 0-113.777778 51.2-113.777778 113.777778V668.444444c0 62.577778 51.2 113.777778 113.777778 113.777778 19.911111 0 36.977778-17.066667 36.977778-36.977778v-54.044444c-42.666667-11.377778-73.955556-25.6-73.955556-71.111111V42.666667c0-51.2 39.822222-93.866667 93.866667-93.866667h497.777778c51.2 0 93.866667 42.666667 93.866666 93.866667V620.088889c0 45.511111-31.288889 59.733333-76.8 68.266667V742.4c-2.844444 22.755556 14.222222 39.822222 34.133334 39.822222 62.577778 0 113.777778-51.2 113.777778-113.777778v-682.666666c0-62.577778-51.2-113.777778-113.777778-113.777778H199.111111z m341.333333 304.355556h227.555556c19.911111 0 36.977778-17.066667 36.977778-36.977778S787.911111 99.555556 768 99.555556h-227.555556c-19.911111 0-36.977778 17.066667-36.977777 36.977777s17.066667 39.822222 36.977777 39.822223z m0 301.511111h227.555556c19.911111 0 36.977778-17.066667 36.977778-36.977778s-17.066667-36.977778-36.977778-36.977778h-227.555556c-19.911111 0-36.977778 17.066667-36.977777 36.977778s17.066667 36.977778 36.977777 36.977778z m-227.555555 227.555555V745.244444c0 19.911111 17.066667 36.977778 36.977778 36.977778h36.977777c0 62.577778 51.2 113.777778 113.777778 113.777778s113.777778-51.2 113.777778-113.777778H654.222222c19.911111 0 36.977778-17.066667 36.977778-36.977778v-36.977777L312.888889 705.422222z m-99.555556-233.244444c5.688889 5.688889 17.066667 5.688889 25.6 0l62.577778-62.577778 136.533333 136.533333c8.533333 8.533333 22.755556 8.533333 28.444445 0 8.533333-8.533333 8.533333-19.911111 0-28.444444l-147.911111-147.911111c-5.688889-2.844444-11.377778-5.688889-17.066667-5.688889-5.688889 0-8.533333 2.844444-11.377778 5.688889l-73.955555 73.955555c-11.377778 11.377778-11.377778 22.755556-2.844445 28.444445z m207.644445-403.911111c-8.533333-8.533333-22.755556-8.533333-28.444445 0L332.8 128l-59.733333-59.733333c-8.533333-8.533333-22.755556-8.533333-28.444445 0-8.533333 8.533333-8.533333 22.755556 0 28.444444l59.733334 59.733333-59.733334 59.733334c-8.533333 8.533333-8.533333 22.755556 0 28.444444 8.533333 8.533333 19.911111 8.533333 28.444445 0l59.733333-59.733333 59.733333 59.733333c8.533333 8.533333 22.755556 8.533333 28.444445 0 8.533333-8.533333 8.533333-19.911111 0-28.444444L361.244444 156.444444l59.733334-59.733333c8.533333-5.688889 8.533333-19.911111 0-28.444444z"  horiz-adv-x="1024" />

    
    <glyph glyph-name="xingming" unicode="&#59021;" d="M786.027 245.76c43.52 45.547 75.626 99.413 93.226 160.533 17.6 61.12 20.694 123.2 8.32 184.32C852.267 761.387 706.24 887.68 532.373 896h-19.626c-173.974 0-326.187-118.08-369.6-286.827-22.827-86.933-15.574-170.88 21.76-251.626C206.293 266.453 273.6 200.213 365.76 160.853c-22.827-13.44-43.52-30.08-62.08-48.64-45.547-47.68-73.493-104.533-81.813-169.813-2.027-12.373-2.027-25.92-2.027-38.293 1.067-17.6 15.573-31.04 34.133-31.04h1.067c16.533 0 31.04 12.373 33.173 29.013 1.067 4.16 1.067 8.32 1.067 12.373v1.067c1.067 37.227 10.347 71.467 27.947 100.48 44.48 75.627 111.786 114.88 198.826 114.88h1.067c51.733 0 99.413-17.6 140.8-52.8 50.773-43.52 77.653-99.413 79.68-167.68v-1.067c0-3.093 0-7.253 1.067-11.413 4.16-15.573 17.6-25.92 33.173-25.92H776c18.667 2.027 32.107 17.6 31.04 35.2 0 3.093 0 6.187-1.067 10.347-1.066 15.573-2.026 32.106-5.226 48.64-18.667 85.973-66.24 151.146-139.734 194.666 47.36 19.734 89.814 48.64 125.014 84.907z m-271.254-44.48h-2.133c-171.84 0-311.68 140.8-311.68 312.64 0 82.88 32.107 161.493 92.16 220.587 59.093 58.986 137.707 92.16 220.587 92.16 171.84 0 312.64-139.734 312.64-312.64 0-173.014-139.734-312.747-311.574-312.747zM645.227 396.907c-6.187 5.226-14.507 8.32-22.827 8.32-9.28 0-17.6-3.094-24.853-9.28-3.094-2.027-5.227-5.227-8.32-7.254-7.254-7.253-14.507-13.44-21.76-18.666-16.534-11.414-34.134-17.6-51.734-17.6-9.28 0-19.626 2.026-29.013 5.226-20.693 7.254-40.427 18.667-60.053 37.227-7.254 7.253-16.534 10.347-25.92 10.347-9.28 0-17.6-4.16-24.854-10.347-11.413-14.507-10.346-35.2 4.16-49.707 13.44-13.44 29.014-24.853 45.547-35.2 29.013-17.6 60.053-25.92 91.093-26.88h4.16c4.16 0 8.32 0 11.414 1.067h3.093c41.387 6.187 78.72 26.88 112.853 64.213 6.187 7.254 9.28 15.574 9.28 24.854-0.96 9.173-5.013 17.493-12.266 23.68z"  horiz-adv-x="1025" />

    
    <glyph glyph-name="youxiang" unicode="&#59264;" d="M1015.735 656.165a31.89 31.89 0 0 1-6.949 16.31 137.29 137.29 0 0 1-122.368 77.24h-602.55a137.29 137.29 0 0 1-122.369-77.166 31.817 31.817 0 0 1-6.948-16.311 144.75 144.75 0 0 1-8.265-48.348v-447.707a139.922 139.922 0 0 1 137.581-141.897h602.551A139.922 139.922 0 0 1 1024 160.183V607.817a144.75 144.75 0 0 1-8.265 48.348z m-731.868 29.257h602.551a74.094 74.094 0 0 0 58.953-29.623l-256-285.257a136.85 136.85 0 0 0-208.969 0l-9.581 10.679a31.232 31.232 0 0 1-4.389 5.705 35.913 35.913 0 0 1-3.51 3.072L224.694 655.506a74.094 74.094 0 0 0 59.172 29.696z m602.551-602.405h-602.55a76.361 76.361 0 0 0-75.045 77.385V578.78L400.75 364.983 280.942 241.518a32.914 32.914 0 0 1 0-45.568 30.574 30.574 0 0 1 43.885 0l118.346 122.002a199.534 199.534 0 0 1 141.677-59.904 200.63 200.63 0 0 1 150.309 69.047L862.354 195.95a30.647 30.647 0 0 1 44.252 0 32.914 32.914 0 0 1 0 45.568l-128.951 132.9L961.17 578.853v-418.67a76.288 76.288 0 0 0-75.044-77.385z"  horiz-adv-x="1170" />

    
    <glyph glyph-name="qq1" unicode="&#59024;" d="M645.12 51.2c-61.44 0-102.4 15.36-117.76 25.6h-5.12c-20.48-10.24-76.8-30.72-158.72-20.48-40.96 5.12-71.68 20.48-81.92 40.96-15.36 30.72 5.12 56.32 5.12 56.32 5.12 5.12 15.36 15.36 30.72 25.6-5.12 5.12-5.12 10.24-10.24 15.36-10.24-10.24-20.48-15.36-35.84-10.24-5.12 0-61.44 20.48-35.84 128 0 5.12 15.36 61.44 46.08 107.52-5.12 15.36-5.12 46.08 15.36 81.92 5.12 76.8 61.44 215.04 230.4 215.04s220.16-138.24 225.28-215.04c20.48-35.84 20.48-66.56 15.36-87.04 30.72-46.08 46.08-102.4 46.08-102.4 20.48-107.52-30.72-122.88-35.84-128-15.36-5.12-25.6 5.12-35.84 10.24-5.12-5.12-5.12-10.24-10.24-15.36 15.36-10.24 25.6-20.48 25.6-20.48 5.12-5.12 20.48-35.84 10.24-61.44s-35.84-35.84-81.92-40.96c-15.36-5.12-25.6-5.12-40.96-5.12zM517.12 128h15.36c5.12 0 10.24 0 10.24-5.12 0 0 56.32-25.6 133.12-20.48 25.6 5.12 35.84 10.24 40.96 15.36V128s-15.36 15.36-30.72 20.48c-10.24 5.12-15.36 10.24-15.36 15.36 0 10.24 0 15.36 5.12 25.6 0 0 25.6 25.6 35.84 61.44 5.12 10.24 5.12 20.48 20.48 25.6 10.24 5.12 15.36 0 25.6-5.12 5.12-5.12 10.24-10.24 15.36-20.48 0 10.24 0 25.6-5.12 51.2 0 5.12-20.48 61.44-46.08 97.28-5.12 10.24-5.12 20.48-5.12 25.6 0 0 10.24 20.48-10.24 56.32 0 5.12-5.12 10.24-5.12 15.36 0 5.12-10.24 174.08-174.08 174.08-168.96-5.12-179.2-174.08-179.2-179.2 0-5.12 0-10.24-5.12-15.36-20.48-30.72-10.24-51.2-10.24-56.32 5.12-10.24 5.12-20.48-5.12-25.6-25.6-30.72-40.96-81.92-46.08-97.28-5.12-25.6-5.12-40.96-5.12-51.2 5.12 10.24 10.24 15.36 15.36 20.48 5.12 5.12 15.36 5.12 25.6 5.12 10.24-5.12 15.36-15.36 20.48-25.6 10.24-35.84 35.84-61.44 35.84-61.44 5.12-5.12 10.24-15.36 5.12-25.6 0-10.24-10.24-15.36-15.36-20.48-20.48-10.24-35.84-25.6-35.84-25.6v-5.12c0-5.12 10.24-10.24 40.96-15.36 81.92-10.24 133.12 20.48 133.12 20.48 10.24 10.24 10.24 15.36 15.36 15.36z"  horiz-adv-x="1024" />

    
    <glyph glyph-name="yindao" unicode="&#59020;" d="M774 487.6l85.3 98.7-85.3 98.6H530.7v22.9c0 13.5-10.9 24.5-24.5 24.5s-24.5-10.9-24.5-24.5v-22.9H339.5c-21.8 0-39.6-17.8-39.6-39.6v-118.2c0-21.8 17.8-39.6 39.6-39.6h142.3v-39.7H247.4L162 349.20000000000005l85.3-98.7h234.5v-188.6c0-13.5 10.9-24.5 24.5-24.5s24.5 10.9 24.5 24.5V250.5h151.1c21.8 0 39.6 17.8 39.6 39.6V408.3c0 21.8-17.8 39.6-39.6 39.6H530.7v39.7H774z m-99.1-190.5H268.7l-45.1 52.1 45.1 52.1h406.2v-104.2zM346.5 638.4h406.2l45.1-52.1-45.1-52.1H346.5V638.4z"  horiz-adv-x="1024" />

    
    <glyph glyph-name="huxiangguanzhuren" unicode="&#59018;" d="M512.256 827.363556c59.306667 0 115.057778-23.096889 156.984889-65.024 41.927111-41.927111 65.024-97.678222 65.024-156.984889s-23.096889-115.057778-65.024-156.984889c-41.927111-41.927111-97.678222-65.024-156.984889-65.024s-115.057778 23.096889-156.984889 65.024c-41.927111 41.927111-65.024 97.678222-65.024 156.984889s23.096889 115.057778 65.024 156.984889a220.558222 220.558222 0 0 0 156.984889 65.024m0 68.636444C351.729778 896 221.596444 765.866667 221.596444 605.3404439999999s130.133333-290.659556 290.659556-290.659555 290.659556 130.133333 290.659556 290.659555C802.901333 765.866667 672.782222 896 512.256 896zM72.291556-128a34.318222 34.318222 0 0 0-34.318223 34.318222c0 64.014222 12.544 126.122667 37.290667 184.618667a472.746667 472.746667 0 0 0 101.632 150.741333 472.746667 472.746667 0 0 0 150.741333 101.632 471.224889 471.224889 0 0 0 184.618667 37.290667 474.296889 474.296889 0 0 0 236.984889-63.36 34.318222 34.318222 0 1 0-34.346667-59.434667 405.475556 405.475556 0 0 1-202.638222 54.158222c-108.344889 0-210.218667-42.197333-286.833778-118.812444-76.615111-76.615111-118.812444-178.474667-118.812444-286.833778A34.318222 34.318222 0 0 0 72.291556-128zM951.708444 92.50133300000005H510.350222a34.318222 34.318222 0 1 0 0 68.636445h441.358222a34.318222 34.318222 0 1 0 0-68.636445zM951.722667 92.50133300000005a34.218667 34.218667 0 0 0-25.742223 11.619556l-93.681777 106.168889a34.318222 34.318222 0 0 0 51.470222 45.411555l93.681778-106.168889a34.318222 34.318222 0 0 0-25.728-57.031111zM951.708444-21.461332999999968H510.350222a34.318222 34.318222 0 1 0 0 68.636444h441.358222a34.318222 34.318222 0 1 0 0-68.636444zM604.032-127.630222a34.218667 34.218667 0 0 0-25.742222 11.619555l-93.681778 106.168889a34.318222 34.318222 0 0 0 51.470222 45.411556l93.681778-106.168889a34.318222 34.318222 0 0 0-25.728-57.031111z"  horiz-adv-x="1024" />

    
    <glyph glyph-name="kefu" unicode="&#59022;" d="M905.711 229.04999999999995h15.38c0-20.276-1.744-40.199-5.244-59.427 73.057 12.233 128.641 75.502 128.641 152.058v61.525c0 74.806-53.833 137.374-124.438 151.017v0c-14.331 191.563-174.082 342.221-368.788 342.221-195.057 0-354.811-150.66-369.141-342.221-70.608-13.981-124.438-76.205-124.438-151.017v-61.525c0-85.29 69.213-154.153 154.153-154.153h92.639v369.84h-60.124c15.38 155.907 146.813 277.551 306.91 277.551s291.532-121.996 306.91-277.551h-60.124v-369.84h60.124c-27.965-126.542-140.871-221.274-276.151-221.274-21.324 0-41.946 2.444-61.525 6.643v-57.68c19.927-3.492 40.548-5.594 61.525-5.594 167.088 0 305.868 120.954 334.183 279.658 3.492 19.58 5.244 39.148 5.244 59.427l-15.725 0.348zM242.594 373.067v0z"  horiz-adv-x="1111" />

    
    <glyph glyph-name="lianai" unicode="&#59293;" d="M470.4 691.2l44.8-44.8 44.8 44.8c99.2 99.2 262.4 99.2 361.6 0 48-48 73.6-112 73.6-179.2 0-19.2-12.8-32-32-32s-32 12.8-32 32c0 51.2-19.2 99.2-57.6 134.4-73.6 73.6-195.2 73.6-272 0l-67.2-67.2c-12.8-12.8-32-12.8-44.8 0l-67.2 67.2c-73.6 73.6-195.2 73.6-272 0-73.6-73.6-73.6-195.2 0-272l361.6-361.6c12.8-12.8 12.8-32 0-44.8s-32-12.8-44.8 0l-361.6 361.6c-99.2 99.2-99.2 262.4 0 361.6 102.4 102.4 262.4 102.4 364.8 0z m176-710.4l-220.8 220.8c-57.6 57.6-57.6 147.2 0 204.8 57.6 57.6 147.2 57.6 204.8 0l57.6-57.6 57.6 57.6c57.6 57.6 147.2 57.6 204.8 0 57.6-57.6 57.6-147.2 0-204.8l-220.8-220.8c-9.6-9.6-25.6-16-38.4-16-19.2 0-32 6.4-44.8 16z m256 265.6c32 32 32 83.2 0 112-32 32-83.2 32-112 0l-80-80c-12.8-12.8-32-12.8-44.8 0l-80 80c-32 32-83.2 32-112 0-32-32-32-83.2 0-112l214.4-214.4 214.4 214.4z"  horiz-adv-x="1024" />

    
    <glyph glyph-name="shipin1" unicode="&#59026;" d="M906.278855 665.780665h-24.948205c-14.793938 0-28.979008-5.831822-39.545668-16.194844l-76.258825-75.172074v35.120893c0 46.688345-37.833677 84.421738-84.415598 84.421738H146.257062c-46.575782 0-84.410482-37.82856-84.410482-84.421738v-450.370361c0-46.694485 37.727253-84.426855 84.410482-84.426855h534.853497c46.581921 0 84.415598 37.839817 84.415598 84.426855v34.31555l76.258825-75.268264c10.565636-10.363022 24.75173-16.200984 39.545668-16.200984h24.948205c31.090089 0 56.241932 25.252127 56.241932 56.348356v451.175703c0 31.094182-25.151843 56.246025-56.241932 56.246025zM709.279109 144.67324c0-7.54893-6.135744-13.684674-13.684674-13.684674H131.868353c-7.537673 0-13.678534 6.135744-13.678534 13.684674V624.022609c-0.101307 7.447623 6.040576 13.583366 13.678534 13.583366h563.726082c7.54893 0 13.684674-6.135744 13.684674-13.684674v-479.248061z m196.999746 13.577226h-28.17469L758.842944 274.2412V492.306728l119.262245 117.226888h28.174689v-451.28315zM518.522554 400.847713l-138.844232 76.776618c-21.526269 11.872399-47.88766-3.726881-47.88766-28.275997V295.705048c0-24.65554 26.361391-40.153512 47.88766-28.275997l138.844232 76.771501c22.23542 12.277628 22.23542 44.172035 0 56.647161z"  horiz-adv-x="1024" />

    
    <glyph glyph-name="liuyan" unicode="&#58885;" d="M659.083636-91.927273a34.909091 34.909091 0 0 0-23.272727 8.843637l-209.454545 186.181818H154.763636A143.36 143.36 0 0 0 11.636364 247.156364V716.8a143.36 143.36 0 0 0 143.127272 143.127273h714.472728A143.36 143.36 0 0 0 1012.363636 716.8v-469.643636A143.36 143.36 0 0 0 869.236364 104.727273h-136.843637a34.909091 34.909091 0 0 0 0 69.818182h136.843637a73.541818 73.541818 0 0 1 73.309091 73.30909V716.8a73.541818 73.541818 0 0 1-73.309091 73.309091H154.763636A73.541818 73.541818 0 0 1 81.454545 716.8v-469.643636A73.541818 73.541818 0 0 1 154.763636 174.545455h283.694546a34.676364 34.676364 0 0 0 23.272727-8.843637l220.392727-195.956363a34.909091 34.909091 0 0 0-23.272727-60.974546zM352.814545 488.029091m-61.207272 0a61.207273 61.207273 0 1 1 122.414545 0 61.207273 61.207273 0 1 1-122.414545 0ZM683.52 488.029091m-61.207273 0a61.207273 61.207273 0 1 1 122.414546 0 61.207273 61.207273 0 1 1-122.414546 0Z"  horiz-adv-x="1024" />

    
    <glyph glyph-name="fuwu1" unicode="&#59027;" d="M952.98446222 676.43619555h-1.16508444c-3.49525333 0.58254222-6.40796445 0.58254222-9.90321778 0.58254223-31.45728 0-57.67168-18.64135111-68.73998222-48.93354667L816.08704 450.99235555c-9.32067555 3.49525333-19.22389333 5.24288-29.70965333 5.24288-16.31118222 0-32.62236445-4.07779555-48.93354667-12.81592888l-185.83096889-99.03217778c-15.72864-8.15559111-29.12711111-20.38897778-40.19541333-35.53507556-11.06830222 15.14609778-25.04931555 27.37948445-40.19541333 35.53507556l-186.41351112 99.61472C268.49735111 452.73998222 252.18616889 456.81777778 235.87498667 456.81777778c-10.48576 0-20.38897778-1.74762667-29.70965334-5.24288L149.07619555 628.6677333299999c-10.48576 30.29219555-36.70016 48.93354667-68.73998222 48.93354667-3.49525333 0-6.40796445 0-9.90321778-0.58254222h-1.16508444c-30.29219555-5.24288-62.91456-33.78744889-63.49710222-84.46862223v-0.58254222l8.15559111-220.20096c0-33.78744889 11.06830222-69.32252445 32.62236445-104.27505778 11.65084445-18.64135111 26.2144-34.36999111 40.19541333-49.51608888l0.58254222-0.58254222 113.01319111-108.93539556c20.97152-20.38897778 41.36049778-39.03032889 54.75896889-61.16693334l48.93354667-79.22574222c6.40796445-10.48576 17.47626667-16.89372445 29.12711111-16.89372444 6.40796445 0 12.81592889 1.74762667 18.64135111 5.24288 16.89372445 10.48576 21.55406222 30.87473778 11.06830222 47.76846222l-50.68117333 82.72099556c-17.47626667 28.54456889-40.77795555 51.26371555-64.66218667 74.56540444l-111.84810666 108.35285334c-33.20490667 33.20490667-52.4288 72.81777778-53.59388445 107.7703111l-8.15559111 220.20096c0 4.07779555 0.58254222 11.06830222 6.40796444 12.23338667h0.58254222c0-0.58254222 0.58254222-0.58254222 0.58254223-1.16508444l64.07964444-200.39452445 3.49525333-15.72864c3.49525333-23.30168889 9.32067555-48.93354667 43.10812445-80.39082666 4.66033778-6.40796445 11.06830222-11.06830222 14.56355555-13.39847112l65.2447289-51.84625777c8.15559111-6.99050667 16.31118222-8.15559111 22.13660444-8.15559111 9.90321778 0 19.22389333 4.66033778 25.63185778 12.81592888 12.81592889 15.14609778 11.06830222 35.53507555-4.07779556 47.76846223l-66.99235556 53.01134222c-20.97152 16.31118222-24.46677333 29.12711111-23.8842311 32.62236445 1.74762667 1.74762667 5.24288 2.91271111 8.73813333 2.9127111 4.66033778 0 11.06830222-1.74762667 16.31118222-4.66033777l185.83096889-99.03217778c23.30168889-13.98101333 36.70016-51.26371555 36.11761778-79.80828445l2.33016888-109.51793777v-0.58254223c0.58254222-6.99050667 3.49525333-13.39847111 8.15559112-18.6413511 5.24288-6.40796445 12.81592889-11.06830222 20.97152-12.8159289l5.24288-1.16508444h1.16508444l5.24288 1.16508444c8.15559111 1.74762667 15.72864 6.40796445 20.97152 12.8159289 4.66033778 5.24288 7.57304889 12.23338667 8.15559111 18.6413511v0.58254223l2.33016889 109.51793777c0 28.54456889 13.39847111 65.82727111 36.11761778 79.80828445l185.24842666 99.03217778c6.40796445 2.91271111 12.23338667 4.66033778 16.89372445 4.66033777 3.49525333 0 6.99050667-1.16508445 8.73813333-2.9127111 0-3.49525333-2.91271111-15.72864-23.88423111-32.62236445l-66.99235555-53.01134222c-15.14609778-12.81592889-16.89372445-32.62236445-4.07779556-47.76846223 6.99050667-8.15559111 16.31118222-12.81592889 25.63185778-12.81592888 5.24288 0 13.39847111 1.16508445 22.13660444 8.15559111l65.24472889 51.84625777c3.49525333 2.33016889 9.90321778 6.99050667 14.56355556 13.39847112 33.20490667 31.45728 39.61287111 57.08913778 43.10812444 80.39082666l3.49525333 15.72864 64.07964445 199.81198222c0.58254222 1.16508445 0.58254222 1.74762667 1.16508445 1.74762667h1.16508444c5.24288-0.58254222 5.82542222-7.57304889 5.82542222-12.23338667l-8.15559111-220.20096c-1.16508445-34.95253333-20.38897778-73.98286222-53.01134222-107.18776888l-111.84810667-108.35285334c-24.46677333-22.71914667-47.18592-46.02083555-65.24472889-74.56540444l-50.68117333-82.72099556c-10.48576-16.89372445-5.24288-37.28270222 11.65084444-47.76846222 5.82542222-3.49525333 12.23338667-5.24288 18.64135112-5.24288 11.65084445 0 22.71914667 6.40796445 29.1271111 16.89372444l48.93354667 79.22574223c13.39847111 22.13660445 33.78744889 40.77795555 54.75896889 61.16693333l112.43064889 108.35285334 1.16508445 1.16508444c13.98101333 15.14609778 28.54456889 30.87473778 40.19541333 49.51608889 20.97152 34.36999111 32.62236445 70.48760889 32.62236444 104.27505777l8.15559111 220.20096v1.16508445c2.33016889 48.35100445-30.29219555 77.47811555-60.58439111 82.72099555zM493.94119111 451.57489778c5.82542222-3.49525333 11.65084445-5.24288 18.05880889-5.24288s12.81592889 1.74762667 18.05880889 5.24288c19.22389333 11.65084445 185.24842667 116.50844445 185.24842666 233.59943111 0 72.81777778-60.58439111 132.23708445-135.14979555 132.23708444-24.46677333 0-47.76846222-6.40796445-68.73998222-18.64135111-20.38897778 12.23338667-44.27320889 18.64135111-68.73998223 18.64135111-74.56540445 0-135.14979555-59.41930667-135.14979555-132.23708444 1.16508445-117.09098667 167.18961778-221.94858667 186.41351111-233.59943111z m-50.68117333 295.93144889c16.89372445 0 32.62236445-6.40796445 44.85575111-17.47626667 13.39847111-12.23338667 34.36999111-12.23338667 47.18592 0 12.23338667 11.06830222 27.96202667 17.47626667 44.85575111 17.47626667 36.11761778 0 65.24472889-27.96202667 65.24472889-62.33201778 0-53.01134222-75.73048889-122.33386667-133.40216889-161.94673778-57.67168 39.61287111-133.40216889 108.93539555-133.40216889 161.94673778 0 34.36999111 29.12711111 62.33201778 64.66218667 62.33201778z"  horiz-adv-x="1024" />

    
    <glyph glyph-name="ka" unicode="&#59029;" d="M811.2-64.2h-565C164.3-64.2 98 2.2 98 84V649.5c0 81.9 66.3 148.3 148.1 148.3h565c81.8 0 148.1-66.4 148.1-148.3V84c0.1-81.8-66.2-148.2-148-148.2zM246.2 717c-37.3 0-67.5-30.2-67.5-67.5V84c0-37.3 30.2-67.5 67.5-67.5h565c37.3 0 67.5 30.2 67.5 67.5V649.5c0 37.3-30.2 67.5-67.5 67.5h-565zM270.5 439.2v-38h483v38H512v79.5h210v37H512v74.5h-42v-191zM469.5 383.2v-245.5h42V318.2c80-38.7 142.7-71.8 188-99.5l26 37c-49.7 28-114.2 60.2-193.5 96.5l-20.5-26.5v57.5h-42z"  horiz-adv-x="1024" />

    
    <glyph glyph-name="zhaopian" unicode="&#59030;" d="M737.28-107.51999999999998H286.72c-146.944 0-266.24 119.296-266.24 266.24V609.28C20.48 756.2239999999999 139.776 875.52 286.72 875.52h450.56c146.944 0 266.24-119.296 266.24-266.24v-450.56c0-146.944-119.296-266.24-266.24-266.24zM286.72 793.6c-101.888 0-184.32-82.432-184.32-184.32v-450.56c0-101.888 82.432-184.32 184.32-184.32h450.56c101.888 0 184.32 82.432 184.32 184.32V609.28c0 101.888-82.432 184.32-184.32 184.32H286.72zM368.64 583.6800000000001m-51.2 0a51.2 51.2 0 1 1 102.4 0 51.2 51.2 0 1 1-102.4 0ZM204.8 138.24c-9.216 0-18.432 3.584-25.6 10.752-13.824 14.336-13.824 36.864 0.512 50.688l149.504 146.944c12.288 12.288 31.744 13.824 46.08 3.584l160.768-115.2 282.624 306.688c13.312 14.336 36.352 15.36 50.688 2.048 14.336-13.312 15.36-35.84 2.048-50.688l-304.128-329.728c-12.288-13.312-32.768-15.36-47.104-4.608L358.4 274.94399999999996l-128-125.952c-7.68-7.168-16.384-10.752-25.6-10.752z"  horiz-adv-x="1024" />

    
    <glyph glyph-name="huodong1" unicode="&#59032;" d="M586.077 268.528c37.038-50.111 93.685-80.613 154.689-80.613 113.294 0 206.979 106.757 206.979 239.66S854.06 667.233 740.766 667.233c-26.145 0-52.29-6.536-76.255-17.43 13.072-39.217 21.787-80.613 21.787-124.187 0-100.221-39.217-191.728-100.221-257.09z m52.289 442.28c30.502 15.252 65.362 21.788 102.4 21.788 150.332 0 272.34-137.26 272.34-305.022 0-145.974-91.506-270.161-215.693-298.485 10.893-30.502 10.893-63.183-4.358-98.042-2.178-6.536-6.536-10.894-8.715-17.43-4.357-6.536-15.25-26.145-17.43-28.323v-4.358c2.18-6.536 6.537-15.25 15.252-28.323 8.715-15.251 4.357-34.86-10.894-45.753-15.251-8.715-34.86-4.358-45.753 10.893-23.966 39.217-30.502 65.362-19.609 91.507 4.358 8.714 19.609 32.68 19.609 34.86 2.179 4.357 4.357 6.535 6.536 10.893 10.894 26.144 8.715 45.753-6.536 65.361-76.255 4.358-143.796 43.575-189.549 102.4-54.468-37.038-117.651-61.004-187.37-61.004h-15.251c-8.715-6.536-10.894-15.25-8.715-28.323 2.179-10.894 6.536-21.787 13.072-37.038 2.179-4.358 8.715-19.609 8.715-17.43 2.179-6.536 4.357-10.894 6.536-15.251 26.145-67.54 19.609-128.545-50.11-180.834-15.252-10.894-34.86-6.537-45.754 6.536-10.893 15.25-6.536 34.86 6.537 45.753 41.395 30.502 43.574 58.826 28.323 102.4 0 2.179-2.179 6.536-4.358 10.894 0-2.18-6.536 13.072-8.714 17.43-8.715 19.608-15.251 34.859-17.43 52.289-4.358 19.608-2.179 37.038 2.179 52.29C117.65 218.416 10.894 357.855 10.894 525.616c0 198.264 150.332 359.49 337.702 359.49 124.187 0 230.944-69.72 289.77-174.298zM348.596 231.49c150.332 0 272.34 130.724 272.34 294.128S498.928 819.745 348.596 819.745 76.256 689.02 76.256 525.617s122.008-294.128 272.34-294.128zM204.8 503.83c6.536-17.429-2.179-34.859-17.43-41.395-17.43-6.536-34.86 2.179-41.396 17.43-15.25 41.396-10.893 95.864 8.715 139.438 8.715 15.251 26.145 23.966 43.575 15.251s23.966-26.144 15.25-43.574c-13.071-26.145-17.429-63.183-8.714-87.15z"  horiz-adv-x="1024" />

    
    <glyph glyph-name="weixin2" unicode="&#58978;" d="M499.057025 548.04468c27.691946 0 45.751911 18.661964 45.751911 45.751911 0 27.089947-18.661964 45.751911-45.751911 45.751911-26.487948 0-54.781893-17.457966-54.781893-45.751911C444.275132 566.104644 472.569077 548.04468 499.057025 548.04468zM299.795414 594.398589c0 27.089947-18.661964 45.751911-45.751911 45.751911-26.487948 0-54.781893-17.457966-54.781893-45.751911 0-28.293945 28.293945-45.751911 54.781893-45.751911C281.73545 548.04468 299.795414 566.706643 299.795414 594.398589zM1024 270.523222c0 67.423868-30.099941 132.439741-84.279835 183.007643-53.577895 49.965902-125.215755 80.667842-201.067607 87.28983 0 1.203998 0 2.407995 0 3.611993-31.905938 148.091711-190.833627 260.063492-370.229277 260.063492C164.947678 804.496179 0 663.026455 0 489.048795 0 396.340976 46.955908 312.061141 136.653733 246.443269l-30.70194-92.707819c-2.407995-7.223986 0-14.447972 5.417989-19.263962 5.417989-4.815991 13.845973-5.417989 19.865961-2.407995l116.787772 58.393886 13.845973-3.009994 0.601999 0c36.119929-7.223986 67.423868-13.845973 105.951793-13.845973 7.223986 0 34.915932 2.407995 43.945914 6.621987 44.547913-108.359788 163.74368-181.201646 297.387419-181.201646 33.711934 0 68.025867 7.825985 102.3398 16.253968l89.697825-48.761905c2.407995-1.203998 5.417989-2.407995 8.427984-2.407995 4.213992 0 8.427984 1.203998 11.437978 4.213992 6.019988 4.815991 7.825985 12.039976 6.019988 19.263962l-22.875955 75.249853C981.258083 123.635509 1024 197.681364 1024 270.523222zM864.470312 92.33157c-6.019988-4.213992-8.427984-12.039976-6.019988-18.661964l12.641975-42.741917-54.179894 29.497942c-2.407995 1.203998-5.417989 2.407995-8.427984 2.407995-1.203998 0-3.009994 0-4.213992-0.601999-31.303939-7.825985-63.811875-16.253968-95.717813-16.253968-146.285714 0-265.481481 100.533804-265.481481 223.943563 0 123.409759 119.195767 223.943563 265.481481 223.943563 143.877719 0 264.879483-102.3398 264.879483-223.943563C974.034098 208.517343 935.506173 145.307466 864.470312 92.33157zM181.803645 255.473251c2.407995 7.223986 0 15.049971-6.621987 19.865961C90.901822 334.335097 48.159906 405.972957 48.159906 488.446796 48.159906 637.140506 191.435626 758.142269 367.821282 758.142269c154.111699 0 291.96943-93.911817 322.069371-218.525573-164.345679-3.611993-297.387419-120.399765-297.387419-261.869489 0-18.661964 2.407995-37.925926 7.825985-57.189888-0.601999 0-1.805996 0-2.407995 0-9.631981-0.601999-19.865961-1.203998-30.099941-1.203998-34.313933 0-63.811875 6.019988-95.717813 12.641975l-19.263962 3.611993c-3.611993 0.601999-7.825985 0-11.437978-1.203998l-80.065844-40.333921L181.803645 255.473251zM612.834803 386.106996c-18.661964 0-37.323927-18.661964-37.323927-37.323927 0-18.661964 18.661964-37.323927 37.323927-37.323927 28.293945 0 45.751911 19.263962 45.751911 37.323927C658.586714 366.843034 641.128748 386.106996 612.834803 386.106996zM804.872428 386.106996c-18.661964 0-36.721928-18.661964-36.721928-37.323927 0-18.661964 18.059965-37.323927 36.721928-37.323927 28.293945 0 45.751911 19.263962 45.751911 37.323927C850.624339 366.843034 833.166373 386.106996 804.872428 386.106996z"  horiz-adv-x="1024" />

    
    <glyph glyph-name="mianju" unicode="&#59019;" d="M713.5 601.7c-95.1-9.3-147.6-107.8-200.4-106.5-51.2 1.3-97.4 101.1-208.6 105.8-128.8 5.4-173.5-55-240.2 30.8 25.8-72.2-27.8-236.1 103-359.3 72.5-68.4 228.4-76.3 258.5-94.6 31.8-19.3 43.6-44.1 87.4-44.1 23.2 0 79.9 37 93.7 46.3 2.2 1.4 4.5 2.5 7 3.2 58.8 16.2 173.2 20.1 253.1 95.5 115 108.5 71.9 270.3 92.5 353-54.8-88.2-128.9-18.6-246-30.1zM188.7 482.2c54.7-20.5 117.7 0 162.5-26.1 35.8-20.9 60.2-72.8 60.2-128.9-88.2-14-226.9 3.5-222.7 155z m427.1-155c0 56 24.4 108 60.2 128.9 44.8 26.1 107.9 5.6 162.5 26.1 4.2-151.5-134.5-169-222.7-155z"  horiz-adv-x="1024" />

    
    <glyph glyph-name="xihuan2" unicode="&#59011;" d="M885.12 692.8a256 256 0 0 1-360.32 0l-12.8-9.92-11.2 11.2a257.6 257.6 0 0 1-360.64 0 249.28 249.28 0 0 1 0-356.16l192-189.12 136.32-135.04a64 64 0 0 1 89.92 0l137.28 135.36 192 188.8a249.6 249.6 0 0 1-2.56 354.88z m-45.12-310.72L768 310.08 648.64 192 512 57.92 375.68 192 256 310.08l-72 72a185.92 185.92 0 0 0 0 265.28 192 192 0 0 0 270.4 0l10.88-10.56 22.72-22.72a32 32 0 0 1 45.12 0l23.04 22.72 10.88 10.56a193.92 193.92 0 0 0 270.72 0 185.92 185.92 0 0 0 0-265.28zM409.628996 232.276405m-22.627417 22.627417l-135.764502 135.764502q-22.627417 22.627417 0 45.254834l0 0q22.627417 22.627417 45.254834 0l135.764502-135.764502q22.627417-22.627417 0-45.254834l0 0q-22.627417-22.627417-45.254834 0Z"  horiz-adv-x="1024" />

    
    <glyph glyph-name="qiandao" unicode="&#59010;" d="M930.909091-11.636364H139.636364V779.636364h791.272727v-791.272728zM186.181818 34.909091h698.181818V733.090909H186.181818v-698.181818zM651.636364 849.454545h46.545454v-186.181818h-46.545454zM372.363636 849.454545h46.545455v-186.181818h-46.545455zM344.436364 323.490909l-20.945455 39.563636c79.127273 25.6 146.618182 58.181818 200.145455 97.745455h27.927272c58.181818-41.890909 123.345455-74.472727 200.145455-97.745455l-20.945455-39.563636c-25.6 9.309091-48.872727 18.618182-69.818181 27.927273v-32.581818H414.254545v32.581818l-69.818181-27.927273z m18.618181 111.709091l-37.236363 23.272727c27.927273 37.236364 48.872727 74.472727 60.509091 116.363637l41.890909-9.309091c-2.327273-9.309091-6.981818-18.618182-9.309091-27.927273h116.363636v-39.563636h-58.181818c6.981818-13.963636 11.636364-27.927273 16.290909-39.563637l-39.563636-13.963636c-4.654545 18.618182-11.636364 37.236364-18.618182 53.527273h-30.254545c-16.290909-23.272727-27.927273-44.218182-41.89091-62.836364z m318.836364-141.963636c-11.636364-34.909091-25.6-67.490909-39.563636-95.418182h93.090909v-41.890909h-395.636364V197.818182h256c16.290909 30.254545 30.254545 67.490909 44.218182 109.381818l41.890909-13.963636z m-218.763636-79.127273l-39.563637-9.309091c-9.309091 27.927273-20.945455 55.854545-34.909091 83.781818l39.563637 13.963637c11.636364-25.6 23.272727-55.854545 34.909091-88.436364z m72.145454 209.454545c-30.254545-23.272727-67.490909-46.545455-109.381818-67.490909h218.763636c-41.890909 20.945455-76.8 41.890909-109.381818 67.490909z m27.927273-204.8l-39.563636-9.309091c-6.981818 30.254545-18.618182 60.509091-30.254546 88.436364l41.890909 13.963636c9.309091-27.927273 18.618182-58.181818 27.927273-93.090909z m6.981818 237.381819l-37.236363 23.272727c20.945455 30.254545 37.236364 62.836364 46.545454 95.418182l41.890909-9.309091c-2.327273-9.309091-6.981818-18.618182-9.309091-27.927273H744.727273v-39.563636h-65.163637c9.309091-16.290909 16.290909-30.254545 20.945455-44.218182l-39.563636-16.290909c-6.981818 20.945455-16.290909 39.563636-25.6 58.181818h-37.236364c-9.309091-11.636364-18.618182-27.927273-27.927273-39.563636z"  horiz-adv-x="1024" />

    
    <glyph glyph-name="eye" unicode="&#59000;" d="M1575.384615 391.916308c0-151.906462-323.505231-481.043692-787.692307-481.043693-450.126769 0-787.692308 320.708923-787.692308 481.043693C0 552.2904619999999 337.565538 872.999385 787.692308 872.999385c466.983385 0 787.692308-320.708923 787.692307-481.083077z m-787.692307 393.846154c-208.187077 0-379.785846-174.395077-379.785846-391.010462 0-216.615385 168.802462-391.049846 379.785846-391.049846 208.187077 0 379.785846 174.434462 379.785846 391.049846S998.675692 785.723077 787.692308 785.723077z m0-143.478154c-132.214154 0-241.939692-112.521846-241.939693-250.368s106.889846-250.368 241.939693-250.368 241.939692 112.521846 241.939692 250.368S919.906462 642.284308 787.692308 642.284308z"  horiz-adv-x="1575" />

    
    <glyph glyph-name="biyan" unicode="&#58962;" d="M478.448705 313.690505c-30.603636 2.068687-60.470303 7.240404-89.069899 15.204849l-59.242021-127.017374a35.960242 35.960242 0 0 0-20.415353-18.566465 35.911111 35.911111 0 0 0-27.565253 1.370505c-17.997576 8.391111-25.884444 29.711515-17.674343 47.799596l56.850101 121.910303a383.345778 383.345778 0 0 0-126.370909 95.625051 329.694384 329.694384 0 0 0-59.888485 101.275151c-6.878384 18.773333 2.766869 39.576566 21.540202 46.45495s39.576566-2.766869 46.45495-21.540202c10.757172-28.935758 26.634343-55.686465 46.855757-78.99798 59.888485-69.818182 155.267879-112.174545 259.400404-112.174546 104.171313 0 199.550707 42.395152 259.439192 112.174546a257.64202 257.64202 0 0 1 46.855758 78.99798c6.878384 18.786263 27.681616 28.418586 46.454949 21.540202s28.431515-27.681616 21.540202-46.45495a329.998222 329.998222 0 0 0-59.888485-101.275151c-5.12-5.973333-10.433939-11.765657-15.928889-17.37697l88.565657-88.565657c13.89899-14.183434 13.782626-36.900202-0.258586-50.941414a35.995152 35.995152 0 0 0-25.41899-10.705454c-9.554747-0.051717-18.747475 3.710707-25.522424 10.446868l-93.052121 93.052122c-17.37697-11.946667-35.852929-22.561616-55.182222-31.754344l56.772525-121.664646c8.23596-18.088081 0.349091-39.434343-17.674344-47.825455a35.908525 35.908525 0 0 0-27.565252-1.370505 36.039111 36.039111 0 0 0-20.415354 18.566465L628.881028 328.791919a441.934869 441.934869 0 0 0-78.028283-14.26101v-110.868687c-0.18101-19.872323-16.342626-35.878788-36.20202-35.878788-20.130909 0-36.20202 16.071111-36.20202 35.85293v110.054141z m0 0M229.611533 446.939798a35.958949 35.958949 0 0 0 50.954343-0.219798c14.054141-14.041212 14.170505-36.796768 0.258586-50.980202l-102.865454-102.865455a36.02101 36.02101 0 0 0-25.548283-10.472727c-9.567677 0.051717-18.721616 3.904646-25.444849 10.718384-14.041212 14.041212-14.144646 36.770909-0.258585 50.941414l102.904242 102.904243v-0.025859z m0 0"  horiz-adv-x="1024" />

    
    <glyph glyph-name="shouye" unicode="&#60310;" d="M243.2-21.33299999999997h541.867V281.6c0 17.067 17.066 34.133 34.133 34.133s34.133-17.066 34.133-34.133v-337.067c0-17.066-17.066-34.133-34.133-34.133H209.067c-17.067 0-34.134 17.067-34.134 34.133V281.6c0 17.067 17.067 34.133 34.134 34.133S243.2 298.66700000000003 243.2 281.6v-302.933zM512 768L106.667 362.66700000000003c-12.8-12.8-34.134-12.8-46.934 0-12.8 12.8-12.8 34.133 0 46.933L486.4 840.533c12.8 12.8 34.133 12.8 46.933 0L964.267 409.6c12.8-12.8 12.8-34.133 0-46.933-12.8-12.8-34.134-12.8-46.934 0L512 768z"  horiz-adv-x="1024" />

    
    <glyph glyph-name="gouwu" unicode="&#60248;" d="M929.3 714.5 929.3 714.5 760.9 714.5l0 74.7C760.9 846.1 711.9 896 656.1 896L368.4 896c-56.1 0-105.3-49.9-105.3-106.8l0-74.7L94.6 714.5c-17.2 0-31.1-14-31.1-31.1l0-656.5c0-85.4 66-154.9 147.1-154.9l603.3 0c80.8 0 146.6 69.5 146.6 154.9L960.5 683.4C960.5 700.6 946.5 714.5 929.3 714.5zM325.4 789.2 325.4 789.2c0 22 21.7 44.5 43 44.5l287.7 0c21.5 0 42.6-22 42.6-44.5l0-74.7L325.4 714.5 325.4 789.2zM898.2 93.7 125.8 93.7 125.8 652.3l137.3 0 0 0 0-100.6c-9.1-8.8-14.7-21-14.7-34.6 0-26.7 21.7-48.4 48.4-48.4 26.7 0 48.3 21.7 48.3 48.4 0 15.9-7.8 30-19.7 38.8l0 96.4 373.2 0 0-96.4c-11.9-8.8-19.8-22.9-19.8-38.8 0-26.7 21.7-48.4 48.4-48.4 26.7 0 48.4 21.7 48.4 48.4 0 13.6-5.7 25.9-14.7 34.6L760.9 652.3l137.3 0L898.2 93.7z"  horiz-adv-x="1024" />

    
    <glyph glyph-name="bianji" unicode="&#58995;" d="M160.335883 9.605382h286.873215l442.198954 482.91603c49.793724 53.437168 49.793724 140.176685 0 193.549932L731.589431 855.523415a121.512028 121.512028 0 0 1-180.3824 0L116.422804 390.185401H114.824802l0.639201-0.894881-18.984257-20.262658v-290.772339c0-38.032434 28.636185-68.650141 63.856137-68.650141z m435.934788 797.46663a60.596214 60.596214 0 0 0 90.12728 0L844.216571 637.747781c24.928822-26.782504 24.928822-70.120302 0-96.774966l-395.856912-427.3695h-0.06392c-14.062413 57.528051-45.958521 113.202421-95.304805 166.128228-51.583486 55.418689-105.659854 90.1912-161.845584 104.125772 0 0-0.12784 0.06392 0 0.06392l405.125321 423.150777zM160.208043 146.458224V326.265344s0 0.12784 0.12784 0.12784c3.068163-1.470161 105.659854-50.049405 147.527491-94.921284 41.739797-44.80796 81.114552-150.020373 82.329033-153.280297l-0.06392-0.12784H208.148085c-26.462904 0-47.940043 23.01122-47.940042 51.455646v16.938815z m449.54976 235.86501a7.478647 7.478647 0 0 1 11.31385 0l33.81371 36.306592a8.884888 8.884888 0 0 1 0 12.016971l-22.56378 24.289621a7.670407 7.670407 0 0 1-11.24993 0l-33.81371-36.306592a9.076648 9.076648 0 0 1 0-12.080891l22.49986-24.225701z m67.75526 72.613184a7.606487 7.606487 0 0 1 11.24993 0l112.69106 120.936748a8.948808 8.948808 0 0 1 0 12.208731l-22.43594 24.097861a7.670407 7.670407 0 0 1-11.37777 0L654.885363 491.179091a9.140568 9.140568 0 0 1 0-12.016971l22.6277-24.225702z m216.177632-513.725497H129.078975a33.49411 33.49411 0 0 1-32.599229-33.366269c-0.575281-19.303857 13.934572-35.092111 31.832188-35.092112h764.675641a33.49411 33.49411 0 0 1 32.599229 33.30235c0.38352 19.367777-13.998492 35.156031-31.896109 35.156031z"  horiz-adv-x="1024" />

    
    <glyph glyph-name="bianzu4" unicode="&#58996;" d="M192-32c0 17.664 15.616 32 34.88 32h698.24c19.264 0 34.88-14.336 34.88-32s-15.616-32-34.88-32H226.88C207.648-64 192-49.664 192-32zM958.56 682.56c44.576-41.536 44.576-108.832 0-150.336l-538.208-501.12c-44.576-41.472-116.864-41.472-161.44 0l-161.472 150.368c-44.576 41.504-44.576 108.8 0 150.304l538.208 501.12c44.576 41.472 116.864 41.472 161.44 0l161.472-150.368zM594.272 294.88l-213.536 198.816-239.392-222.912a33.44 33.44 0 0 1-0.448-49.28l0.448-0.416 160.16-149.12c14.72-13.728 38.624-13.728 53.376 0l239.392 222.912z"  horiz-adv-x="1024" />

    
    <glyph glyph-name="mouse1179267easyiconnet" unicode="&#58993;" d="M302.372571 411.165257l-22.6304-22.6304c-5.719771-5.719771-5.719771-14.965029 0-20.6848 2.852571-2.852571 6.597486-4.286171 10.3424-4.286171s7.489829 1.4336 10.3424 4.286171l22.6304 22.6304c5.719771 5.719771 5.719771 14.965029 0 20.6848S308.092343 416.885029 302.372571 411.165257zM245.803886 354.6112l-54.389029-54.403657c-61.908114-61.908114-60.196571-160.621714 3.920457-224.738743 2.852571-2.852571 6.597486-4.286171 10.3424-4.286171s7.489829 1.4336 10.3424 4.286171c5.719771 5.719771 5.719771 14.965029 0 20.6848-25.365943 25.365943-39.848229 58.075429-40.7552 92.072229-0.9216 34.216229 12.170971 66.633143 36.834743 91.296914l54.389029 54.403657c5.719771 5.719771 5.719771 14.965029 0 20.6848S251.523657 360.316343 245.803886 354.6112zM963.759543 824.261486c-2.677029 15.901257-17.729829 26.624-33.631086 23.9616-15.915886-2.647771-26.667886-17.7152-24.078629-33.631086 2.881829-17.700571 5.456457-70.085486-17.115429-99.503543-10.371657-13.502171-25.278171-21.050514-45.553371-23.083886-79.7696-7.972571-120.773486-45.173029-141.063314-74.196114-41.2672 39.160686-94.954057 60.810971-152.049371 60.810971-59.099429 0-114.658743-23.010743-156.437943-64.8192L122.338743 342.3232c-86.264686-86.264686-86.264686-226.640457 0-312.890514l45.246171-45.246171c41.7792-41.793829 97.338514-64.8192 156.437943-64.8192 59.099429 0 114.658743 23.010743 156.423314 64.8192l271.520914 271.506286c86.250057 86.264686 86.250057 226.625829 0 312.890514l-7.314286 7.314286c8.850286 16.6912 35.196343 50.951314 104.5504 57.899886 36.308114 3.627886 66.165029 19.529143 86.337829 45.948343C978.139429 735.524571 964.373943 820.662857 963.759543 824.261486zM435.214629 572.430629c30.749257 30.749257 71.621486 47.674514 115.068343 47.674514s84.333714-16.925257 115.068343-47.674514l12.273371-12.258743-61.425371-61.44c-17.393371 8.279771-39.6288 5.617371-53.628343-8.382171l-45.2608-45.2608c-8.8064-8.8064-13.663086-20.494629-13.663086-32.958171 0-7.387429 1.901714-14.409143 5.12-20.831086l-16.310857-16.310857c-52.224 53.584457-100.790857 108.587886-117.818514 136.864914L435.214629 572.430629zM607.817143 445.088914l-45.2608-45.246171c-6.568229-6.568229-17.978514-6.5536-24.561371 0-3.291429 3.291429-5.090743 7.636114-5.090743 12.288 0 4.622629 1.799314 8.981943 5.090743 12.273371l45.2608 45.2608c3.2768 3.2768 7.621486 5.090743 12.273371 5.090743s9.0112-1.813943 12.288-5.090743C614.590171 462.891886 614.575543 451.861943 607.817143 445.088914zM439.0912 25.556114c-30.734629-30.749257-71.592229-47.674514-115.053714-47.674514-43.476114 0-84.333714 16.925257-115.068343 47.674514l-45.2608 45.246171c-63.444114 63.458743-63.444114 166.692571 0 230.136686l190.0544 190.0544c46.328686-67.964343 206.965029-236.836571 274.929371-275.821714L439.0912 25.556114zM710.597486 297.0624l-60.328229-60.328229c-18.826971 5.456457-77.897143 58.0608-137.274514 117.4528l16.457143 16.442514c6.407314-3.232914 13.443657-5.12 20.831086-5.12 12.463543 0 24.1664 4.842057 32.9728 13.663086l45.246171 45.246171c14.5408 14.555429 17.247086 36.308114 8.513829 53.774629l61.293714 61.308343 12.288-12.288C774.0416 463.754971 774.0416 360.506514 710.597486 297.0624z"  horiz-adv-x="1024" />

    
    <glyph glyph-name="mendian" unicode="&#58994;" d="M981.312-128 42.688-128C20.096-128 0-104.448 0-76.8c0 27.712 20.096 51.2 42.688 51.2l0 0L42.688 384 128 384l0-409.6 298.688 0L426.688 384 512 384l0-409.6 384 0L896 384l85.312 0 0-409.6 0 0c22.656 0 42.688-23.488 42.688-51.2C1024-104.448 1003.968-128 981.312-128L981.312-128zM853.312 230.4 682.688 25.6 640 76.8l170.688 204.8L853.312 230.4 853.312 230.4zM554.688 179.2 725.312 384 768 332.8 597.312 128 554.688 179.2 554.688 179.2zM283.84 315.328c0 24.768 16.384 44.8 36.736 44.8 20.224 0 36.672-20.032 36.672-44.8 0-15.936-5.632-25.664-15.936-33.664L341.312 128c10.24-7.936 15.936-22.08 15.936-38.016 0-24.768-16.384-44.864-36.672-44.864-20.352 0-36.736 20.096-36.736 44.864 0 14.976 5.568 29.888 14.784 38.016L298.624 281.6C289.408 289.728 283.84 300.224 283.84 315.328L283.84 315.328zM938.688 435.2c-40.128 0-82.624 48.832-85.376 102.4l-42.624 0c-2.752-53.568-45.248-102.4-85.376-102.4-40.064 0-82.496 48.832-85.312 102.4L597.312 537.6C594.56 483.968 552.128 435.2 512 435.2c-40.064 0-82.624 48.832-85.312 102.4L384 537.6C381.248 483.968 338.752 435.2 298.688 435.2c-40.064 0-82.56 48.832-85.312 102.4L170.688 537.6C167.936 483.968 125.44 435.2 85.312 435.2 45.248 435.2 2.752 483.968 0 537.6L0 588.8l1024 0 0-51.2C1021.248 483.968 978.816 435.2 938.688 435.2L938.688 435.2zM128 896l768 0 128-256L0 640 128 896 128 896zM853.312 691.2 896 691.2l-42.688 153.6-42.624 0L853.312 691.2 853.312 691.2zM682.688 691.2l42.624 0-42.624 153.6L640 844.8 682.688 691.2 682.688 691.2zM469.312 691.2l85.312 0L554.624 844.8 469.312 844.8 469.312 691.2 469.312 691.2zM341.312 691.2 384 844.8 341.312 844.8 298.688 691.2 341.312 691.2 341.312 691.2zM170.688 691.2l42.688 153.6L170.688 844.8 128 691.2 170.688 691.2 170.688 691.2zM170.688 691.2"  horiz-adv-x="1024" />

    
    <glyph glyph-name="shangmen" unicode="&#59038;" d="M358.4 840.192A51.2 51.2 0 0 0 414.0032 891.1872l460.8-39.936A51.2 51.2 0 0 0 921.6 800.256v-832.512a51.2 51.2 0 0 0-46.7968-51.0464l-460.8-39.8848A51.2 51.2 0 0 0 358.4-72.192V-76.8H153.6a51.2 51.2 0 0 0-51.2 51.2V793.6a51.2 51.2 0 0 0 51.2 51.2h204.8v-4.608zM550.4 435.2a38.4 38.4 0 0 0 38.4-38.4v-76.8a38.4 38.4 0 1 0-76.8 0v76.8a38.4 38.4 0 0 0 38.4 38.4zM435.2-44.288l409.6 35.4816V776.8064l-409.6 35.4816v-856.576z"  horiz-adv-x="1024" />

    
    <glyph glyph-name="renlianshibie" unicode="&#59269;" d="M1152-94.72h-135.68v33.28h102.4v99.84H1152v-133.12z m-17.92 174.08V696.32h2.56v-616.96h-2.56z m-15.36 783.36h-104.96V896H1152v-128h-33.28V862.72zM212.48 880.64h729.6v-2.56H212.48V880.64z m-179.2-115.2H0V896h135.68v-33.28h-102.4v-97.28zM20.48 696.32v-616.96H17.92V696.32h2.56z m12.8-757.76h97.28v-33.28H0v130.56h33.28v-97.28z m1059.84 473.6l-61.44-5.12h-250.88c-5.12-15.36-10.24-30.72-15.36-48.64-7.68-25.6-20.48-48.64-35.84-71.68-17.92-28.16-43.52-51.2-74.24-66.56-20.48-10.24-43.52-17.92-66.56-23.04-17.92-2.56-38.4 0-56.32 5.12-28.16 7.68-53.76 20.48-74.24 38.4-23.04 17.92-40.96 40.96-56.32 66.56-17.92 33.28-30.72 66.56-38.4 102.4H120.32l-61.44 5.12 61.44 5.12h243.2c-2.56 10.24-5.12 17.92-7.68 28.16-5.12 25.6-10.24 51.2-15.36 74.24-2.56 15.36-2.56 30.72-5.12 46.08-2.56 17.92-2.56 35.84-2.56 53.76 0 25.6 2.56 53.76 10.24 79.36 7.68 20.48 17.92 38.4 33.28 56.32 25.6 28.16 58.88 48.64 97.28 56.32 28.16 2.56 48.64 5.12 71.68 5.12 15.36 0 28.16 2.56 43.52 2.56 38.4 0 76.8-7.68 115.2-23.04 25.6-10.24 48.64-25.6 66.56-48.64 20.48-23.04 35.84-51.2 40.96-81.92 2.56-17.92 2.56-38.4 5.12-56.32h-2.56c0-15.36 0-28.16-2.56-43.52-2.56-25.6-7.68-51.2-10.24-79.36-5.12-25.6-10.24-48.64-15.36-71.68h245.76l61.44-5.12zM289.28 115.2c30.72 7.68 61.44 15.36 94.72 25.6 17.92 5.12 33.28 15.36 43.52 28.16 5.12 7.68 7.68 15.36 7.68 25.6v28.16c7.68-7.68 15.36-17.92 23.04-23.04 23.04-23.04 51.2-38.4 79.36-48.64 30.72-10.24 61.44-7.68 89.6 5.12 28.16 10.24 51.2 28.16 71.68 48.64 2.56 2.56 2.56 5.12 5.12 7.68h2.56v-10.24c-2.56-23.04 12.8-43.52 33.28-53.76 20.48-10.24 40.96-15.36 64-20.48l143.36-35.84c20.48-5.12 40.96-10.24 64-15.36-53.76-66.56-122.88-117.76-199.68-153.6h130.56v-2.56h-135.68c-51.2-23.04-107.52-38.4-163.84-43.52-99.84-12.8-202.24 2.56-294.4 43.52H212.48V-76.8h128c-76.8 35.84-145.92 89.6-199.68 156.16 12.8 5.12 25.6 7.68 38.4 10.24 35.84 7.68 74.24 15.36 110.08 25.6z"  horiz-adv-x="1152" />

    
    <glyph glyph-name="shenfenzheng" unicode="&#58991;" d="M884.82702222 660.16816515L581.04204129 660.16816515l0 55.23363279c0 38.11120711-30.93083417 69.04204129-69.04204129 69.04204128s-69.04204129-30.93083417-69.04204129-69.04204128l0-55.23363279L139.17297778 660.16816515c-45.76106542 0-82.85044978-37.08938437-82.85044979-82.85044979l0-497.1026963c0-45.76106542 37.08938437-82.85044978 82.85044979-82.85044978l745.65404444 0c45.76106542 0 82.85044978 37.08938437 82.85044979 82.85044978L967.67747201 577.31771536C967.67747201 623.0787795599999 930.58808764 660.16816515 884.82702222 660.16816515zM512 743.01861373c15.25829055 0 27.616817-12.35852524 27.616817-27.616817 0-15.25829055-12.35852524-27.616817-27.616817-27.61681701s-27.616817 12.35852524-27.616817 27.61681701C484.383183 730.66008849 496.74170945 743.01861373 512 743.01861373zM332.49069314 542.79669411c63.73961213 0 115.39686772-51.67106306 115.39686771-115.39686771S396.23030526 312.00295989000006 332.49069314 312.00295989000006s-115.39686772 51.67106306-115.39686772 115.39686772S268.75108101 542.79669411 332.49069314 542.79669411zM512 94.02342755999996L152.98138627 94.02342755999996l0 51.28442858C152.98138627 216.13118168999995 210.38293902 273.53273443 281.20626457 273.53273443l102.5826646 0C454.59844725 273.53273443 512 216.13118168999995 512 145.30785491999995L512 94.02342755999996zM871.01861373 356.38318300000003L608.65885708 356.38318300000003l0 41.42522429 262.35975665 0L871.01861373 356.38318300000003zM884.82702222 453.04204129L539.616817 453.04204129l0 41.42522428 345.21020522 0L884.82702222 453.04204129z"  horiz-adv-x="1024" />

    
    <glyph glyph-name="dongtai" unicode="&#58990;" d="M298.7 149.29999999999995l379.6 68.4 68.4 379.6L367 529l-68.3-379.7z m128 320L661.3 512l-42.7-234.7L384 234.70000000000005l42.7 234.6zM512 832C264.6 832 64 631.4 64 384s200.6-448 448-448 448 200.6 448 448S759.4 832 512 832z m0-832c-212.1 0-384 171.9-384 384s171.9 384 384 384 384-171.9 384-384-171.9-384-384-384z m10.7 426.7c-29.5 0-53.3-23.9-53.3-53.3 0-29.5 23.9-53.3 53.3-53.3 29.5 0 53.3 23.9 53.3 53.3s-23.9 53.3-53.3 53.3z"  horiz-adv-x="1024" />

    
    <glyph glyph-name="jubao" unicode="&#58987;" d="M917.333333 0a21.333333 21.333333 0 0 0 21.333334-21.333333v-42.666667a21.333333 21.333333 0 0 0-21.333334-21.333333H106.666667a21.333333 21.333333 0 0 0-21.333334 21.333333v42.666667a21.333333 21.333333 0 0 0 21.333334 21.333333h810.666666zM512 640c211.541333 0 384-162.88 384-365.034667V42.666667H128V274.965333C128 477.12 300.458667 640 512 640z m0-85.333333c-165.482667 0-298.666667-125.781333-298.666667-279.701334V128h597.333334v146.965333C810.666667 428.885333 677.482667 554.666667 512 554.666667z m22.826667-93.653334a48.554667 48.554667 0 0 0-38.805334-55.872 166.186667 166.186667 0 0 1-117.034666-83.413333 48.512 48.512 0 0 0-84.928 46.933333 263.189333 263.189333 0 0 0 185.493333 132.096l0.234667 0.042667a48.512 48.512 0 0 0 55.04-39.765333zM259.114667 779.456L334.549333 704a21.333333 21.333333 0 0 0 0-30.165333l-30.165333-30.165334a21.333333 21.333333 0 0 0-30.165333 0L198.784 719.082667a21.333333 21.333333 0 0 0 0 30.165333l30.165333 30.186667a21.333333 21.333333 0 0 0 30.165334 0z m530.794666 1.770667l2.005334-1.770667 30.186666-30.186667a21.333333 21.333333 0 0 0 1.770667-28.16l-1.770667-2.005333L746.666667 643.669333a21.333333 21.333333 0 0 0-28.16-1.792l-2.005334 1.792-30.165333 30.165334a21.333333 21.333333 0 0 0-1.792 28.16L686.336 704l75.413333 75.434667a21.333333 21.333333 0 0 0 28.16 1.770666zM533.333333 853.333333a21.333333 21.333333 0 0 0 21.333334-21.333333v-106.666667a21.333333 21.333333 0 0 0-21.333334-21.333333h-42.666666a21.333333 21.333333 0 0 0-21.333334 21.333333V832a21.333333 21.333333 0 0 0 21.333334 21.333333h42.666666z"  horiz-adv-x="1024" />

    
    <glyph glyph-name="aixin1" unicode="&#58985;" d="M667.787 778.667c165.077 0 270.88-132.374 270.88-310.528 0-138.251-125.099-290.507-371.574-461.59a96.768 96.768 0 0 0-110.186 0C210.432 177.632 85.333 329.888 85.333 468.14c0 178.154 105.803 310.528 270.88 310.528 59.616 0 100.054-20.832 155.787-68.096 55.744 47.253 96.17 68.096 155.787 68.096z m0-63.147c-41.44 0-70.262-15.19-116.96-55.04-2.166-1.845-14.4-12.373-17.942-15.381a32.32 32.32 0 0 0-41.77 0c-3.542 3.018-15.776 13.536-17.942 15.381-46.698 39.85-75.52 55.04-116.96 55.04-126.026 0-206.88-100.779-206.88-246.219 0-110.901 113.526-248.544 344.299-408.128a32.352 32.352 0 0 1 36.736 0C761.141 220.747 874.667 358.4 874.667 469.301c0 145.44-80.854 246.219-206.88 246.219z"  horiz-adv-x="1024" />

    
    <glyph glyph-name="hezuo" unicode="&#59023;" d="M972.8 542.72c-0.512 144.384-117.76 261.12-262.144 261.12-69.12 0-135.168-27.648-184.32-76.288l-14.336-14.336-14.336 14.336C395.264 829.44 229.888 829.44 128 727.552s-102.4-266.752-0.512-368.64l0.512-0.512 24.064-24.064c-20.992-55.808-7.68-118.784 34.304-160.768l155.136-154.624c45.056-44.544 112.64-56.832 170.496-30.208 57.856-26.624 125.952-14.336 171.008 30.208l155.136 154.624c41.984 41.984 55.808 104.96 34.304 160.768l24.064 24.064c48.64 48.64 76.288 115.2 76.288 184.32z m-261.632 194.56c107.008 0 194.56-86.528 194.56-193.536 0-51.712-20.48-101.376-56.832-137.728l-14.336-14.336-167.424 162.304c-1.536 1.536-3.584 3.072-5.12 4.096l-0.512 0.512a33.3824 33.3824 0 0 1-47.104-4.608c-48.128-58.88-95.232-89.6-139.776-91.648-37.376-1.536-67.072 18.432-84.992 34.304l184.32 184.32c36.352 35.84 85.504 56.32 137.216 56.32z m-322.56-671.232l-155.136 154.624c-33.28 33.28-33.28 86.528 0 119.808 27.648 27.136 71.68 27.648 99.84 0.512l176.64-173.056c27.648-27.136 28.16-72.192 1.024-99.84l-2.048-2.048c-33.28-33.28-87.04-33.28-120.32 0z m401.92 154.624l-155.136-154.624c-16.384-15.872-37.888-25.088-60.928-24.576 36.352 54.784 29.184 128-17.92 174.08L379.904 388.608c-52.736 51.2-136.192 52.224-190.464 2.56l-14.848 14.336c-75.776 75.776-75.776 199.168 0.512 274.944s199.168 75.776 274.944-0.512l14.336-14.336-130.048-130.048c-22.016-21.504-22.016-56.832-0.512-78.848 23.552-24.064 74.24-64.512 143.36-61.44 55.808 2.56 111.616 32.256 164.864 89.088l148.48-143.872c33.28-32.768 33.28-86.528 0-119.808z"  horiz-adv-x="1024" />

    
    <glyph glyph-name="aixin" unicode="&#58982;" d="M993.385244 821.475556c-190.122667 131.868444-370.346667-30.492444-370.346666-30.492445l-6.030222-6.542222 216.064-235.235556c35.726222-39.139556 41.358222-97.507556 13.937777-142.961777l128.227556-136.704c20.707556 23.552 37.831111 44.373333 50.517333 61.212444 10.808889 14.506667 19.968 27.079111 27.591111 37.603556 73.557333 101.489778 130.275556 321.308444-59.960889 453.12zM731.241244 340.195556h-4.039111a133.063111 133.063111 0 0 0-95.914666 44.487111L484.571022 547.726222a42.211556 42.211556 0 0 0-9.671111 41.016889 41.528889 41.528889 0 0 0 30.72 28.444445 40.675556 40.675556 0 0 0 39.480889-13.368889l128.341333-142.620445 25.258667-31.630222a47.445333 47.445333 0 0 1 62.122667-7.395556 48.924444 48.924444 0 0 1 16.554666 61.155556c-0.796444 1.706667-1.706667 3.299556-2.56 4.892444l-1.137777 3.128889-1.251556 1.934223-2.503111 2.844444-1.479111 1.820444-47.160889 51.2L496.915911 793.031111c-21.617778 18.261333-190.350222 151.608889-367.957333 28.444445C-61.277867 689.664-4.616533 469.902222 68.4288 368.469333c7.566222-10.524444 16.782222-23.096889 27.534222-37.603555 62.577778-84.195556 249.287111-271.075556 366.364445-385.706667 54.101333-53.020444 139.832889-53.816889 195.015111-1.877333l-223.573334 237.909333a41.984 41.984 0 0 0 1.479112 58.88 40.618667 40.618667 0 0 0 58.026666-1.479111l223.232-237.397333c23.893333 23.552 48.924444 48.64 74.183111 74.126222l-216.917333 230.798222a41.927111 41.927111 0 0 0 3.299556 56.832 40.675556 40.675556 0 0 0 56.149333 0.455111l215.381333-229.148444c24.576 25.6 48.526222 50.346667 70.712889 74.183111l-134.428444 143.018667c-16.896-7.452444-35.157333-11.320889-53.646223-11.320889z"  horiz-adv-x="1137" />

    
    <glyph glyph-name="lie" unicode="&#58984;" d="M188.304498 803.3803379999999c-9.545956 20.099982-27.480747 49.109902-27.480747 49.109902H11.13088s19.022507-29.180587 54.515484-95.019236c22.145707-41.065813 32.930702-82.297742 32.930703-82.297742L11.13088 608.598471v-125.44l92.439893 67.64544v-161.113884L11.13088 318.151111v-130.624853l92.439893 67.902578v-127.390152c0-64.395947-33.735111-149.993244-95.831609-212.528924h132.498774c73.068089 58.358898 90.159787 129.885298 90.159786 200.237511l-0.014791 529.093973 24.871823 18.144143V791.51104l-48.438614-31.65184S198.835769 781.198222 188.302222 803.384889l0.002276-0.002276z m634.118826-238.597689H502.752142V690.603804h319.671182v-125.821155z m118.784 287.707591h-118.784v-66.780729H502.752142V852.49024H379.004018v-66.780729h-77.032107v-95.105707h77.032107v-125.821155h-72.066845v-95.097742h709.322525v95.097742h-75.053511V690.603804h75.054649V785.709511h-75.054649V852.49024zM437.614364 114.81088h389.258809v95.112533H437.614364v109.103787h456.413867v-248.362098c0-42.901049-13.664711-70.073458-68.081209-70.073458H437.614364V114.81088zM311.908124-84.49137800000005h578.8672c92.974649 0 125.484373 48.580836 125.484374 128.855609V414.559573l-704.350436-0.449422V-84.49137800000005z"  horiz-adv-x="1024" />

    
    <glyph glyph-name="kapian" unicode="&#58992;" d="M950.272 896H78.848C41.984 896 0 859.648 0 816.128v-864.256c0-43.52 41.984-79.872 73.728-79.872h163.328v57.856h42.496V-128h470.016v57.856h42.496V-128h158.208c31.744 0 73.728 36.352 73.728 79.872V816.128C1024 859.648 982.016 896 950.272 896zM318.976 611.328c66.56 0 120.832-54.272 120.832-120.832s-54.272-120.832-120.832-120.832-120.832 54.784-120.832 120.832 54.272 120.832 120.832 120.832z m-193.024-463.872c0 108.544 84.48 193.024 193.024 193.024S512 256 512 147.456H125.952z m738.816 30.208h-242.176c-13.824 0-27.648 14.336-27.648 35.84s14.336 35.84 27.648 35.84h242.176c13.824 0 27.648-14.336 27.648-35.84 0.512-14.336-14.336-35.84-27.648-35.84z m0 159.744h-242.176c-13.824 0-27.648 14.336-27.648 35.84s14.336 35.84 27.648 35.84h242.176c13.824 0 27.648-14.336 27.648-35.84s-14.336-35.84-27.648-35.84z m1.536 160.256h-242.176c-13.824 0-27.648 14.336-27.648 35.84s14.336 35.84 27.648 35.84h242.176c13.824 0 27.648-14.336 27.648-35.84 0.512-14.336-13.824-35.84-27.648-35.84z"  horiz-adv-x="1024" />

    
    <glyph glyph-name="huodong2" unicode="&#59292;" d="M630.72 696.96c10.176-24.96 36.16-106.24 36.16-141.312 0-120.896-46.336-236.16-127.68-316.352-7.936-7.936-22.592-18.112-37.312-27.136-25.984-16.96-53.12-29.376-83.584-37.248l28.224-79.104h-87.04l-10.112-36.16c-1.152-4.48 0-7.936 3.392-11.328 22.592-22.592 25.984-56.512 10.176-83.584l-41.792-70.08a32 32 0 0 0-41.856-11.264 29.952 29.952 0 0 0-12.416 40.64l41.792 70.08a13.888 13.888 0 0 1-1.088 14.72c-18.112 18.048-23.744 42.88-18.112 66.56l5.632 22.656H221.696l28.224 79.104c-68.928 18.048-131.072 62.08-176.256 123.136a377.664 377.664 0 0 0-54.208 106.24 412.48 412.48 0 0 0-19.2 123.136c0 202.24 150.272 366.08 333.312 366.08a308.48 308.48 0 0 0 183.04-59.84 343.232 343.232 0 0 0 114.112-139.008z m40.704 3.328c19.2 4.48 40.64 6.784 60.992 6.784 157.056 1.152 283.584-137.856 284.8-308.48v-2.24c0-73.472-23.808-145.792-67.84-201.152a284.032 284.032 0 0 0-158.208-103.936l13.568-37.312h-37.312l-3.392-12.416c18.112-19.2 21.504-46.336 7.936-68.928l-30.528-48.576a32 32 0 0 0-41.792-11.264 29.952 29.952 0 0 0-12.416 40.64l29.376 48.64a56.96 56.96 0 0 0-14.72 53.12h-42.88l13.504 37.248a252.608 252.608 0 0 0-94.912 44.032 345.728 345.728 0 0 0-51.968 47.488c47.488 20.352 141.248 150.272 162.688 255.36 7.936 39.552 19.2 115.2 9.088 179.648-7.936 38.4-19.2 65.536-25.984 81.344z m90.368-488.128c3.392 0 7.936 0 11.328 2.24a148.8 148.8 0 0 1 90.368 97.216 26.624 26.624 0 0 1-3.392 22.592 32.256 32.256 0 0 1-42.88 10.176 33.088 33.088 0 0 1-14.72-18.112 83.072 83.072 0 0 0-53.12-56.448c-15.808-6.784-23.68-23.744-16.96-38.4a35.84 35.84 0 0 1 29.376-19.2zM166.336 519.488c14.72 0 27.072 10.24 30.464 23.744 14.72 70.08 63.36 127.68 131.072 158.208a29.76 29.76 0 0 1 15.872 39.552c-6.784 14.72-25.984 21.44-41.856 14.72-84.736-38.464-145.728-111.936-164.928-200.064a31.808 31.808 0 0 1 4.48-22.592c4.544-9.024 14.72-13.568 24.896-13.568z"  horiz-adv-x="1024" />

    
    <glyph glyph-name="qun" unicode="&#58923;" d="M508.9 428.9h3c69.3 0.8 125.3 56.1 125.3 124.1v41.4c0 68.6-56.8 124.2-126.8 124.2S383.6 663 383.6 594.4V553c0-68 56-123.3 125.3-124.1z m246-18.1c45 0 81.5 34.8 81.5 77.6v26c0 42.9-36.5 77.6-81.5 77.6s-81.5-34.8-81.5-77.6v-25.9c0-42.9 36.5-77.7 81.5-77.7z m-489 0c45 0 81.5 34.8 81.5 77.6v26c0 42.9-36.5 77.6-81.5 77.6s-81.5-34.8-81.5-77.6v-25.9c-0.1-42.9 36.4-77.7 81.5-77.7z m-117.6-79c-21.4-10.9-36.3-35.3-36.3-63.9V236c0-21.1 12.2-38.7 28.9-44.5 26-6.8 52.6-11.3 79.8-13.8V234c0 50.3 18.2 94.4 45.9 122.3h-0.7c-41.4 0.2-81.1-8.6-117.6-24.5z m724.5-0.1c-36.6 16-76.3 24.8-117.9 24.8h-0.6c27.8-28 45.9-72.1 45.9-122.3v-56.4c27.1 2.5 53.8 7 79.6 13.8 16.7 5.7 29.1 23.4 29.1 44.6v31.6c0 28.6-14.9 52.9-36.1 63.9z m-182.2 3.2c-56 25.7-116.7 39.8-180.2 39.8-63.4 0-123.9-14.1-179.8-39.6C297.9 317.8 275 278.7 275 233v-51c0-33.8 18.7-62.1 44.2-71.3 61.6-16.7 125.5-25.9 191.3-25.9 65.7 0 129.5 9 191 25.8 25.7 9.1 44.4 37.5 44.4 71.3v51c0 45.6-22.8 84.6-55.3 102z"  horiz-adv-x="1024" />

    
    <glyph glyph-name="vip" unicode="&#58981;" d="M119.352889 651.719111a59.392 59.392 0 0 0-118.613333 0c0 32.824889 26.567111 59.448889 59.278222 59.448889 32.768 0 59.335111-26.624 59.335111-59.448889zM763.335111 835.868444c0-32.824889-26.567111-59.448889-59.278222-59.448888a59.392 59.392 0 0 0-59.335111 59.448888c0 32.881778 26.567111 59.505778 59.335111 59.505778 32.711111 0 59.278222-26.624 59.278222-59.505778zM1401.514667 651.719111a59.392 59.392 0 0 0-118.613334 0 59.392 59.392 0 1 0 118.613334 0zM119.352889 575.943111l82.488889-529.237333h976.440889l104.618666 529.237333-292.920889-188.017778-285.923555 346.567111-290.645333-331.093333zM1182.947556-80.327111c0-22.584889-18.204444-40.846222-40.732445-40.846222H242.574222a40.789333 40.789333 0 0 0 0 81.635555h899.640889c22.528 0 40.732444-18.261333 40.732445-40.789333z"  horiz-adv-x="1422" />

    
    <glyph glyph-name="xihuan1" unicode="&#58983;" d="M824.665 392.899c-62.074-96.183-327.168-338.042-385.048-338.042-56.71 0-328.436 242.688-390.095 338.042-30.867 47.714-52.76 100.4-49.128 169.643C6.831 685.105 105.184 786.31 225.601 786.31c123.83 0 214.016-121.929 214.016-121.929s90.478 121.93 208.969 121.93c120.442 0 218.795-101.206 225.207-223.77 3.657-69.241-18.188-121.709-49.128-169.642z m0.366 169.643c-6.412 100.254-89.795 176.908-165.986 174.982-118.491 0-219.428-146.286-219.428-146.286s-90.185 146.31-214.016 146.31c-108.35 0-171.91-90.697-176.08-195.072 0.561-54.784 39.961-129.78 73.143-170.666 37.498-49.616 278.407-268.191 316.953-268.191 20.455 0 254.415 188.221 316.952 268.19 39.96 47.153 75.557 107.837 68.462 190.733zM859.75 527.701c-86.992 0-155.234-102.327-155.234-102.327S640.15 527.701 549.234 527.701c-88.406 0-160.598-76.922-165.328-170.081-2.657-52.614 13.434-92.648 36.084-128.927 45.251-72.46 243.176-246.906 284.818-246.906 42.472 0 238.641 173.812 284.21 246.906 22.698 36.425 38.74 76.313 36.059 128.927-4.73 93.16-76.922 170.081-165.328 170.081M225.455 420.62a19.383 19.383 0 0 0-19.164 19.602c0 10.85 8.558 19.627 19.14 19.627 10.58 0 19.138-8.777 19.138-19.627a19.358 19.358 0 0 0-19.114-19.602z m-40.253 40.204a18.895 18.895 0 0 0-13.922 6.144c-11.995 13.044-21.87 24.99-26.356 32.013-17.042 26.502-23.454 48.03-22.064 74.313 1.828 35.328 21.894 66.755 52.321 82.066a82.895 82.895 0 0 0 37.571 9.045c10.557 0 19.115-8.777 19.115-19.602a19.358 19.358 0 0 0-19.115-19.627c-7.12 0-14.092-1.682-20.7-5.022-17.749-8.924-29.89-28.136-30.988-48.933-0.902-17.578 3.365-31.305 15.8-50.663 2.681-4.145 10.58-13.995 22.235-26.649a19.944 19.944 0 0 0-0.756-27.72 18.944 18.944 0 0 0-13.141-5.365z"  horiz-adv-x="1025" />

    
    <glyph glyph-name="shezhi" unicode="&#58980;" d="M1021.361322 429.604959c-1.299429 13.963864-3.038665 27.827771-5.227702 41.531749a530.092049 530.092049 0 0 1-9.515819 46.649499c-49.118415 2.219025-99.076461 32.9955-128.563502 86.002206-29.53702 53.166636-30.136756 113.630065-7.276802 158.930158-21.520543 21.930363-44.830299 41.941569-69.739353 59.683772-5.427615 3.878296-11.10512 7.346771-16.682669 10.965181-7.07689 4.657953-14.193763 9.30591-21.520543 13.604022-6.926956 4.02823-13.99385 7.756591-21.120718 11.474957-6.277241 3.308546-12.604461 6.517136-19.031637 9.515818a484.477095 484.477095 0 0 1-23.559646 10.345454c-16.682669 6.827-33.775157 12.67443-51.307453 17.692225-26.348421-43.081068-77.056137-72.608092-136.040217-72.608092-58.974084 0-109.691796 29.527024-136.040216 72.608092-17.482317-5.017795-34.614788-10.865225-51.307453-17.692225a484.477095 484.477095 0 0 1-23.559647-10.345454c-6.427176-2.998682-12.754395-6.207272-19.031636-9.515818-7.07689-3.668388-14.193763-7.446728-21.120719-11.474957-7.32678-4.298111-14.443653-8.946069-21.520542-13.554044-5.577549-3.668388-11.255054-7.136864-16.682669-11.015159-24.909054-17.732208-48.21881-37.753409-69.689375-59.683772 22.859954-45.300093 22.220235-105.763522-7.32678-158.930158-29.487042-53.006706-79.455083-83.783181-128.563503-86.002206a569.999512 569.999512 0 0 1-9.515818-46.649499 627.351309 627.351309 0 0 1-5.227702-41.531749c-1.199473-15.003407-2.189038-30.046796-2.189038-45.360067 0-15.363249 0.999561-30.406638 2.189038-45.410044 1.299429-13.963864 3.038665-27.827771 5.227702-41.531749 2.538884-15.773068 5.677505-31.346225 9.515818-46.6495 49.118415-2.179042 99.076461-32.9955 128.563503-86.012201 29.53702-53.116658 30.186734-113.620069 7.276802-158.88018 10.905208-11.165093 22.220235-21.930363 34.075026-32.01593 11.454966-9.825682 23.409713-18.981658 35.664327-27.71782 5.427615-3.878296 11.10512-7.346771 16.682669-10.965181 7.07689-4.657953 14.193763-9.30591 21.520542-13.604022 6.926956-4.02823 14.043828-7.756591 21.120719-11.484952 6.277241-3.308546 12.604461-6.517136 19.031636-9.515819 7.766587-3.61841 15.593148-7.086886 23.559647-10.345453 16.682669-6.827 33.775157-12.67443 51.307453-17.692225 26.348421 43.081068 77.056137 72.668066 136.040216 72.668065 58.974084 0 109.691796-29.577002 136.090195-72.668065 17.482317 5.017795 34.574806 10.865225 51.307453 17.692225 7.916521 3.258568 15.743082 6.717048 23.509668 10.345453 6.427176 2.998682 12.754395 6.207272 19.031637 9.515819 7.126868 3.728362 14.193763 7.446728 21.120718 11.484952 7.32678 4.298111 14.443653 8.946069 21.570521 13.604022 5.527571 3.61841 11.205076 7.086886 16.632691 10.965181 24.909054 17.792181 48.268788 37.753409 69.739353 59.73375-22.909932 45.26011-22.270213 105.763522 7.276802 158.88018 29.487042 53.006706 79.505061 83.833159 128.563502 86.012201 3.838313 15.303275 7.026912 30.876431 9.515819 46.6495 2.189038 13.703978 3.938269 27.567885 5.227702 41.531749 1.199473 15.003407 2.189038 30.046796 2.189038 45.410044 0 15.313271-0.999561 30.35666-2.189038 45.360067zM948.583305 296.11362199999996c-49.218371-12.414544-95.488037-47.319205-124.635229-100.026043-29.087218-52.596886-34.914657-111.760886-20.720894-162.398634-42.491327-38.533067-92.149505-68.469911-146.345688-88.13127-34.964635 38.113251-86.921802 62.37259-145.106233 62.37259-58.134453 0-110.131602-24.259339-145.056254-62.37259-54.246161 19.651364-103.914335 49.598204-146.345688 88.13127 14.143784 50.627751 8.316345 109.791752-20.770872 162.398634-29.137196 52.696842-75.416858 87.611499-124.635229 100.026043-5.227703 28.547455-8.216389 57.974523-8.216389 88.13127s2.988687 59.523842 8.216389 88.081293c49.218371 12.464522 95.488037 47.369183 124.635229 100.076021 29.037239 52.546908 34.914657 111.710908 20.770872 162.33866 42.441349 38.533067 92.099527 68.479906 146.345688 88.13127 34.914657-38.113251 86.921802-62.322612 145.056254-62.322612 58.134453 0 110.131602 24.199366 145.056255 62.322612 54.246161-19.651364 103.904339-49.598204 146.345688-88.13127-14.143784-50.627751-8.266367-109.791752 20.770872-162.33866 29.137196-52.696842 75.416858-87.611499 124.635229-100.076021 5.227703-28.547455 8.216389-57.924545 8.216389-88.081293s-2.988687-59.583816-8.216389-88.13127zM511.775261 568.8237790000001c-98.176856 0-177.781873-82.643682-177.781873-184.578887 0-101.935204 79.605017-184.578886 177.781873-184.578886s177.781873 82.643682 177.781874 184.578886c0 101.935204-79.595022 184.578886-177.781874 184.578887z m0-322.878111c-73.527688 0-133.151486 61.912792-133.151486 138.299224 0 76.336454 59.623798 138.23925 133.151486 138.239251s133.151486-61.902797 133.151487-138.239251c0-76.386432-59.623798-138.299224-133.151487-138.299224z"  horiz-adv-x="1024" />

    
    <glyph glyph-name="upglide" unicode="&#58977;" d="M264.76281358 488.29973603L524.93511391 769.99785805l274.01121139-281.69734955H664.91629792v-112.07702637H399.46412277V488.3005085zM401.17129516 256.57078171V338.09251213000005h261.89105989v-81.52173042H401.17129516zM401.17129516 171.57059097v48.56712341h261.89105989v-48.56712341H401.17129516zM401.17052269 90.95729256000004v48.56712341h261.89105988v-48.56712341H401.17052269zM401.17129516 10.330089570000041v48.56712341h261.89105989v-48.56712341H401.17129516z"  horiz-adv-x="1024" />

    
    <glyph glyph-name="xinsui" unicode="&#58975;" d="M526.49984 567.07072c17.09056-16.98816 51.68128-42.37312 49.24416-51.95776-3.19488-12.67712-62.464-65.792-63.30368-80.05632s37.67296-57.86624 34.46784-70.5536-44.87168-58.64448-45.66016-72.9088 22.41536-79.2576 16.01536-86.39488-74.52672 95.11936-69.71392 109.38368 44.87168 50.72896 43.27424 61.0304-52.8896 82.42176-50.4832 97.4848 52.08064 37.25312 52.08064 48.34304c0 9.43104-47.39072 87.5008-56.14592 119.94112-142.47936 113.99168-322.23232-40.31488-313.04704-188.03712 10.8544-174.83776 328.11008-427.58144 389.8368-427.58144s378.88 252.73344 389.7856 427.58144c10.68032 170.86464-231.4752 350.60736-376.34048 113.664"  horiz-adv-x="1024" />

    
    <glyph glyph-name="zhinengpipei" unicode="&#59218;" d="M512 896c72.57 0 131.398-58.81 131.398-131.358 0-23.124-5.977-44.852-16.47-63.726L828.96 498.791c18.854 10.455 40.552 16.408 63.64 16.408 72.57 0 131.399-58.81 131.399-131.358 0-72.546-58.829-131.357-131.398-131.357-23.11 0-44.826 5.964-63.693 16.437L626.956 67.03c10.476-18.86 16.442-40.57 16.442-63.673C643.398-69.19 584.57-128 512-128c-72.57 0-131.398 58.81-131.398 131.358 0 23.103 5.966 44.813 16.442 63.674L195.091 268.92c-18.867-10.473-40.583-16.437-63.693-16.437C58.83 252.484 0 311.294 0 383.84S58.829 515.2 131.398 515.2c23.089 0 44.787-5.953 63.641-16.408l202.034 202.125c-10.494 18.874-16.471 40.602-16.471 63.726C380.602 837.19 439.43 896 512 896z m0-833.758c-15.686 0-29.94-6.13-40.497-16.124a36.862 36.862 0 0 0-2.284-2.285c-9.993-10.552-16.122-24.798-16.122-40.475 0-32.521 26.372-58.885 58.903-58.885s58.903 26.364 58.903 58.885c0 15.68-6.13 29.928-16.126 40.48a36.862 36.862 0 0 0-2.29 2.288c-10.554 9.99-24.805 16.116-40.487 16.116z m63.641 587.45c-18.855-10.454-40.552-16.407-63.641-16.407s-44.786 5.953-63.641 16.408L246.325 447.567c10.494-18.873 16.471-40.601 16.471-63.726 0-23.103-5.966-44.813-16.442-63.674l201.952-201.89c18.867 10.474 40.584 16.438 63.694 16.438s44.827-5.964 63.694-16.437l201.952 201.89c-10.476 18.86-16.442 40.57-16.442 63.673 0 23.125 5.977 44.853 16.47 63.726zM512 515.2c72.57 0 131.398-58.81 131.398-131.358 0-72.546-58.829-131.357-131.398-131.357-72.57 0-131.398 58.81-131.398 131.357S439.43 515.2 512 515.2z m0-72.473c-32.531 0-58.903-26.364-58.903-58.885 0-32.52 26.372-58.884 58.903-58.884s58.903 26.364 58.903 58.884c0 32.521-26.372 58.885-58.903 58.885z m-380.602 0c-32.53 0-58.902-26.364-58.902-58.885 0-32.52 26.371-58.884 58.902-58.884 15.686 0 29.94 6.13 40.496 16.124a36.862 36.862 0 0 0 2.29 2.292c9.99 10.55 16.117 24.794 16.117 40.468 0 16.002-6.385 30.513-16.747 41.126a36.954 36.954 0 0 0-1.076 1.073c-10.61 10.326-25.102 16.686-41.08 16.686z m761.204 0c-15.982 0-30.478-6.363-41.09-16.694a36.95 36.95 0 0 0-1.065-1.066c-10.363-10.612-16.748-25.123-16.748-41.125 0-15.679 6.13-29.927 16.125-40.479a36.86 36.86 0 0 0 2.297-2.295c10.553-9.986 24.802-16.11 40.48-16.11 32.532 0 58.903 26.364 58.903 58.884 0 32.521-26.371 58.885-58.902 58.885zM512 823.526c-32.531 0-58.903-26.363-58.903-58.884 0-15.998 6.382-30.506 16.74-41.119a36.949 36.949 0 0 0 1.074-1.07c10.61-10.331 25.106-16.695 41.089-16.695 15.974 0 30.463 6.357 41.074 16.678a31.671 31.671 0 0 0 1.089 1.09c10.358 10.612 16.74 25.12 16.74 41.116 0 32.521-26.372 58.885-58.903 58.885z"  horiz-adv-x="1024" />

    
    <glyph glyph-name="chuangjianrenqunbao" unicode="&#59171;" d="M746.496 414.208c61.952 0 111.104 49.664 111.104 111.616 0 61.952-49.664 111.616-111.104 111.616-61.952 0-111.616-49.664-111.616-111.616 0-61.44 49.664-111.616 111.616-111.616zM385.536 417.792c104.448 0 188.416 84.48 188.416 188.928s-83.968 188.928-188.416 188.928-188.928-84.48-188.928-188.928 84.48-188.928 188.928-188.928zM731.648 334.336c-12.8 0-27.136-1.024-41.984-2.048 50.688-34.304 85.504-80.896 85.504-141.824v-102.912h177.152v102.912c0 95.744-119.808 143.872-220.672 143.872zM514.048 338.944l-124.416-196.608-124.416 196.608c-98.816-28.672-200.704-88.064-200.704-177.664v-175.104h650.24v175.104c0 90.112-101.888 149.504-200.704 177.664z"  horiz-adv-x="1024" />

    
    <glyph glyph-name="dianhua" unicode="&#58974;" d="M614.22 196.066c1.746 1.084 20.9 13.07 26.503 16.444 10.36 6.265 18.914 10.963 27.467 14.818 60.115 27.347 113.122 8.011 183.236-73.909 43.37-50.718 56.2-95.714 39.454-135.77-12.469-29.937-36.503-50.598-79.27-76.137-2.77-1.627-27.407-15.963-33.731-19.878-99.57-61.44-327.8 79.21-491.942 319.548C121.374 482.123 78.787 739.027 179.682 801.37l13.312 8.433L207.45 819.2c51.02 33.009 83.667 46.2 122.398 39.635 38.672-6.626 71.56-35.238 99.389-87.341 58.669-110.23 45.718-162.515-29.757-210.04-5.42-3.494-24.696-15.12-26.503-16.264-18.492-11.445 12.83-88.125 85.655-194.741C532.36 242.628 593.98 183.657 614.159 196.066z"  horiz-adv-x="1024" />

    
    <glyph glyph-name="huo" unicode="&#59081;" d="M421.4-64S34.1 23.4 207.2 457.2c0 0 39.3-48.2 33.9-71.4 0 0 30.8 109.5 97.3 174.9C395.5 616.9 453.5 774.9 400 832c0 0 265-57.1 294.5-342.7 0 0 33.9 91 103.5 100 0 0-21.4-50 0-125 0 0 219.5-385.5-158.8-515.8 0 0 113.4 132.1-127.1 358.8 0 0-56.7-121.4-90.6-164.2-0.1-0.1-94.7-108.9-0.1-207.1z"  horiz-adv-x="1024" />

    
    <glyph glyph-name="qianshouchenggong" unicode="&#59006;" d="M13.57568 610.133333C-29.090987 450.133333 113.842347 384 113.842347 384c-34.133333-17.066667-104.533333-68.266667-113.066667-155.733333-10.666667-104.533333 89.6-232.533333 243.2-192C465.842347 110.933333 655.709013 384 655.709013 384 406.109013 712.533333 246.109013 731.733333 246.109013 731.733333S60.509013 778.666667 13.57568 610.133333zM1024.77568 537.6c10.666667 104.533333-89.6 232.533333-243.2 189.866667-87.466667-27.733333-168.533333-87.466667-236.8-149.333334 51.2-49.066667 108.8-110.933333 172.8-196.266666 0 0-70.4-100.266667-177.066667-196.266667 149.333333-140.8 238.933333-151.466667 238.933334-151.466667s185.6-46.933333 232.533333 121.6c44.8 160-100.266667 226.133333-100.266667 226.133334 34.133333 19.2 104.533333 70.4 113.066667 155.733333z"  horiz-adv-x="1025" />

    
    <glyph glyph-name="maikefenghuatongyuyin" unicode="&#59017;" d="M313.754 371.866c0-2.1 0.307-4.25 0.512-6.35 0-1.228 0-2.457 0.41-3.686 0-1.996 0.46-4.044 0.767-6.092 0-1.127 0.359-2.253 0.563-3.43s0.359-2.458 0.564-3.687 0.41-1.792 0.563-2.663l0.614-2.918c0.512-2.355 1.024-4.71 1.639-7.066l0.46-1.894a200.653 200.653 0 0 1 134.708-140.954c2.867-0.921 5.785-1.74 8.704-2.508l2.201-0.564c2.304-0.563 4.557-1.075 6.861-1.536l3.072-0.665c2.048-0.359 4.096-0.768 6.195-1.075l3.482-0.564c1.997-0.307 4.045-0.563 6.093-0.768l3.532-0.41c2.15 0 4.352-0.358 6.503-0.46h25.805c2.201 0 4.352 0.256 6.502 0.46l3.584 0.41 6.093 0.768 3.481 0.564 6.144 1.075 3.124 0.665c2.304 0.461 4.556 1.024 6.86 1.588l2.202 0.512c2.918 0.768 5.837 1.587 8.704 2.508a200.755 200.755 0 0 1 134.656 141.005c0 0.615 0.358 1.28 0.512 1.895 0.563 2.355 1.126 4.659 1.638 7.014l0.615 3.02c0 0.871 0.358 1.742 0.512 2.612s0.41 2.458 0.614 3.635 0.359 2.355 0.512 3.533c0.307 1.997 0.563 3.994 0.82 6.042 0 1.228 0 2.457 0.409 3.686 0 2.1 0.358 4.25 0.46 6.349 0 1.126 0 2.253 0.257 3.379v199.22a201.011 201.011 0 0 1-401.971 0v-189.44c0-3.278 0-6.503 0.256-9.78 0.614-1.178 0.716-2.304 0.768-3.43z m60.979 202.7a139.571 139.571 0 0 0 279.091 0v-189.44c0-3.89 0-7.833-0.563-11.673v-1.639a149.33 149.33 0 0 0-1.485-10.7c0-0.82 0-1.639-0.41-2.458-0.614-3.277-1.382-6.451-2.201-9.626-0.307-1.126-0.666-2.252-0.973-3.379-0.82-2.662-1.638-5.12-2.611-7.936-0.563-1.69-1.229-3.328-1.946-5.12s-1.126-2.765-1.74-4.096a143.86 143.86 0 0 0-4.301-8.96l-0.87-1.536a141.107 141.107 0 0 0-38.503-44.493l-0.615-0.46c-2.97-2.202-5.99-4.25-9.113-6.196l-1.997-1.28c-1.587-0.972-3.174-1.894-4.813-2.764s-4.045-2.202-6.093-3.226l-4.403-1.997c-2.201-1.024-4.454-1.945-6.707-2.816l-3.277-1.229a130.601 130.601 0 0 0-8.653-2.764l-2.406-0.666c-3.277-0.87-6.554-1.587-9.933-2.253l-2.201-0.41c-3.482-0.563-6.964-1.075-10.548-1.382h-1.638c-3.789-0.307-7.629-0.46-11.469-0.46s-7.629 0-11.417 0.511h-1.69c-3.533 0.308-7.066 0.82-10.547 1.434l-2.202 0.358c-3.328 0.666-6.656 1.383-9.933 2.253l-2.406 0.717c-2.918 0.82-5.786 1.74-8.653 2.765l-3.174 1.229a112.1 112.1 0 0 0-6.81 2.816l-4.25 1.945c-2.099 1.024-4.198 2.15-6.246 3.277l-4.761 2.714-2.356 1.536a145.951 145.951 0 0 0-8.755 5.939l-0.768 0.614a140.083 140.083 0 0 0-38.349 44.34c-0.307 0.563-0.614 1.075-0.87 1.638a119.225 119.225 0 0 0-4.352 8.909c-0.614 1.33-1.178 2.713-1.74 4.044s-1.332 3.38-1.946 5.12a127.355 127.355 0 0 0-3.533 11.316c-0.87 3.123-1.587 6.297-2.202 9.523l-0.46 2.56c-0.615 3.533-1.127 7.065-1.434 10.65v1.638c-0.307 3.84-0.512 7.782-0.512 11.673zM808.96 384.717a30.72 30.72 0 0 1-33.74-27.341A261.734 261.734 0 0 0 514.1 122.624a261.632 261.632 0 0 0-261.12 234.752 30.72 30.72 0 0 1-61.134-6.451 322.918 322.918 0 0 1 291.328-288.307v-55.04h-113.1a30.72 30.72 0 0 1 0-61.44h288.41a30.72 30.72 0 0 1 0 61.44H544.972v55.04A322.867 322.867 0 0 1 836.3 350.925a30.72 30.72 0 0 1-27.341 33.792z"  horiz-adv-x="1024" />

    
    <glyph glyph-name="qiehuanshexiangtou1" unicode="&#58880;" d="M635.997091 765.393455c10.100364 0 20.689455-2.932364 28.951273-8.145455 7.284364-4.514909 9.844364-8.773818 10.100363-9.611636l9.844364-40.029091a83.805091 83.805091 0 0 1 81.594182-63.813818h107.985454a60.811636 60.811636 0 0 0 60.788364-60.811637v-486.4a60.811636 60.811636 0 0 0-60.811636-60.788363H144.849455a60.811636 60.811636 0 0 0-60.788364 60.788363v486.4a60.811636 60.811636 0 0 0 60.811636 60.811637h113.943273a84.014545 84.014545 0 0 1 81.594182 63.83709l9.844363 40.005819c0.232727 0.837818 2.792727 5.213091 10.077091 9.728 8.401455 5.12 18.850909 8.145455 28.951273 8.145454l246.714182-0.116363z m0 60.788363H389.282909c-45.474909 0-89.018182-27.461818-98.001454-63.953454l-9.844364-40.029091a23.272727 23.272727 0 0 0-22.504727-17.617455H144.872727A121.646545 121.646545 0 0 1 23.272727 582.981818v-486.4a121.646545 121.646545 0 0 1 121.6-121.576727h729.6a121.646545 121.646545 0 0 1 121.576728 121.576727v486.4a121.646545 121.646545 0 0 1-121.6 121.6h-107.985455a23.156364 23.156364 0 0 0-22.481455 17.640727l-9.844363 40.005819C725.131636 798.696727 681.472 826.181818 635.997091 826.181818zM339.362909 365.498182l-0.046545 0.512h0.046545c3.374545 92.555636 79.266909 166.632727 172.637091 166.632727 37.794909 0 72.541091-12.427636 100.957091-33.024l-26.693818-25.972364 0.139636-0.162909a18.850909 18.850909 0 0 1-4.584727-12.264727c0-10.519273 8.541091-19.037091 19.037091-19.037091h88.878545a19.037091 19.037091 0 0 1 19.013818 19.037091v88.855273a19.037091 19.037091 0 0 1-36.677818 7.051636l-23.505454-22.853818A219.973818 219.973818 0 0 1 512 581.818182c-116.130909 0-211.013818-89.297455-220.834909-202.914909a18.781091 18.781091 0 0 1-1.303273-6.562909c0-0.791273 0.256-1.536 0.465455-2.280728a24.762182 24.762182 0 1 1 49.058909-4.561454z m394.775273-3.165091c0 0.930909-0.162909 1.792-0.256 2.699636l-0.046546 0.977455h-0.046545a24.669091 24.669091 0 0 1-24.389818 21.061818c-12.427636 0-22.621091-9.169455-24.413091-21.061818h-0.349091l0.139636-2.373818c-0.023273-0.465455-0.139636-0.861091-0.139636-1.326546 0-1.070545 0.186182-2.071273 0.302545-3.095273A172.939636 172.939636 0 0 0 512 186.693818a170.938182 170.938182 0 0 0-101.073455 33.163637l24.762182 24.576a18.013091 18.013091 0 0 1 6.493091 13.684363 19.060364 19.060364 0 0 1-19.037091 19.037091H407.272727l-0.465454 0.465455-0.488728-0.465455h-72.02909a19.037091 19.037091 0 0 1-19.060364-19.037091v-88.855273c0-10.519273 8.541091-19.037091 19.060364-19.03709 1.373091 0 2.583273 0.488727 3.909818 0.768l0.046545-0.768 0.977455 1.000727a18.525091 18.525091 0 0 1 11.310545 8.797091l25.297455 25.064727A219.229091 219.229091 0 0 1 512 137.541818a222.161455 222.161455 0 0 1 222.138182 222.138182c0 0.605091-0.046545 1.186909-0.069818 1.768727 0 0.302545 0.069818 0.581818 0.069818 0.907637z"  horiz-adv-x="1024" />

    
    <glyph glyph-name="meiyankai" unicode="&#58971;" d="M541.737858 569.96377c14.879291-48.163889 91.788969 17.855149 121.397507-12.078484s18.005192-158.683259 48.764062-157.970553 72.020768 96.115216 108.981426 109.394046 102.442041-74.584008 145.729524-48.576508S911.844584 562.524124 918.096387 606.461794s135.726639 61.455222 97.153016 133.47599c0 0-91.5514 5.601615-121.397507 36.085406s-36.260456 97.528124-36.260457 97.528124S838.073311 914.625659 809.089953 885.654804s-35.610269-74.496482-85.024518-85.024518-98.90352 58.891982-121.385004 36.4105 29.008365-84.211784 24.081945-133.513501-99.866298-85.537166-85.024518-133.563515z m172.762319-356.4903c-2.500721-22.969124-45.60065-39.773969-38.56112-62.180431s41.612 8.314898 55.015865-5.601616 7.927286-73.771273 22.006345-73.458683 32.809461 44.725397 49.539286 50.889675 46.413384-34.409923 66.019038-22.644029-24.769643 47.288636-21.981339 67.807053 61.467725 28.758293 44.012692 62.092905c0 0-41.687021 2.963355-55.015865 16.967393s-16.479752 45.213038-16.479752 45.213038-8.965085 19.118013-22.006346 5.601615-15.929594-34.647491-38.486098-39.536401-45.01298 27.445414-55.015865 16.967393 13.128786-39.211307 11.040684-62.092905zM391.056906 652.800157c3.913629 27.995573 85.462144 39.286329 61.130128 84.82446 0 0-57.854183 3.913629-76.422037 23.119167S352.933413 822.599121 352.933413 822.599121s-12.090987 26.570162-30.571316 8.002308-22.293929-47.138593-53.502928-53.85303-62.417999 37.448299-76.422038 23.131671 18.242761-53.615461 15.279406-85.024519-62.893136-54.015576-53.527936-85.024518 57.779162 11.040684 76.422038-8.002307 10.965662-100.829076 30.558812-100.428961 45.625657 61.055106 68.769831 69.545055 64.343555-47.61373 91.638926-30.971431-34.497448 64.731166-30.571316 92.751746zM19.749834 47.825702s-54.015576-84.674417 24.244491-145.329408 133.563515-12.078483 133.563515-12.078483l437.001017 497.743533s23.931901 9.840338 12.166008 24.006923l-72.820999 72.820999s-15.929594 23.119167-48.576508 0S19.749834 47.825702 19.749834 47.825702z m0 0"  horiz-adv-x="1024" />

    
    <glyph glyph-name="meiyanguan" unicode="&#58972;" d="M541.810922 569.988815c14.877426-48.132849 91.764963 17.877915 121.394795-12.126977s18.002936-158.65087 48.75795-157.900748c30.755015 0.750122 72.011742 96.140677 109.017777 109.392838 36.881014 13.252161 102.391696-74.51215 145.648749-48.63293S911.746244 562.487592 917.997263 606.369747s135.772139 61.51003 97.14084 133.521773c0 0-91.389902 5.625917-121.269774 36.130891s-36.255912 97.390881-36.255912 97.390881-19.50318 41.256727-48.50791 12.251998c-29.00473-29.00473-35.63081-74.51215-85.013862-85.013863s-98.891125 58.884602-121.394795 36.380933S631.700579 752.768619 626.699764 703.510587s-99.891288-85.513944-84.888842-133.521772zM753.595456 258.062952c1.625265 0 3.25053 0.12502 4.875795 0.500082 22.503669 4.875795 25.379138 26.00424 38.506279 39.506442s22.003588-5.625917 22.003588-5.625918 3.12551-31.255097 16.502691-45.25738c13.377181-14.002283 55.00897-17.002772 55.008969-17.002772 17.502854-33.380443-41.256727-41.631789-44.007175-62.135132-0.12502-1.000163-0.12502-2.000326-0.125021-3.000489l-92.765126 93.015167zM214.757592 796.900816c15.252487-8.876447 34.755667-24.378975 54.133827-20.253303 31.255097 6.751101 35.005708 35.255749 53.383705 53.883787 18.503017 18.503017 30.629995-8.001305 30.629995-8.001305s4.375714-42.631952 22.87873-61.885091c18.628038-19.253139 76.387456-23.128771 76.387456-23.128772 24.378975-45.507421-57.259337-56.759255-61.134969-84.763821-2.500408-17.877915 21.628527-43.757135 32.38028-64.51052L214.757592 796.900816zM553.937899 484.974953l72.761865-72.761865c7.876284-9.376529 0-16.877752-6.251019-20.878404l-101.266513 101.266512c23.253792 9.001468 34.755667-7.626244 34.755667-7.626243zM19.85081 47.903683s227.787143 208.158943 371.935649 337.555042l117.394142-117.394142-331.429043-377.561566s-55.259011-48.63293-133.521773 12.126978-24.378975 145.273689-24.378975 145.273688zM56.526791 770.218965l67.185955 67.185955 872.792319-872.792318-67.185956-67.185956z"  horiz-adv-x="1024" />

    
    <glyph glyph-name="gengduo-guanbimaikefeng" unicode="&#58973;" d="M535.324444 47.957333h117.304889a29.354667 29.354667 0 0 0 0-58.652444H359.310222a29.354667 29.354667 0 0 0 0 58.595555h117.304889v60.017778a322.673778 322.673778 0 0 0-293.319111 321.422222 29.354667 29.354667 0 1 0 58.652444 0 263.964444 263.964444 0 0 1 528.042667 0 29.354667 29.354667 0 1 0 58.652445 0 322.673778 322.673778 0 0 0-293.319112-321.422222v-59.960889zM505.969778 810.666667a205.368889 205.368889 0 0 0 205.368889-205.368889v-176.014222a205.368889 205.368889 0 0 0-410.737778 0V605.297778A205.368889 205.368889 0 0 0 506.026667 810.666667z m0-58.652445A146.659556 146.659556 0 0 1 359.310222 605.297778v-176.014222a146.659556 146.659556 0 1 1 293.319111 0V605.297778A146.659556 146.659556 0 0 1 505.969778 752.071111zM196.632092 769.005002m21.762547-21.762547l609.874256-609.874256q21.762547-21.762547 0-43.525094l-0.040227-0.040227q-21.762547-21.762547-43.525093 0l-609.874256 609.874257q-21.762547 21.762547 0 43.525093l0.040226 0.040227q21.762547 21.762547 43.525094 0Z"  horiz-adv-x="1024" />

    
    <glyph glyph-name="lianjie1" unicode="&#58970;" d="M432.599 278.084c-10.592 0-21.183 2.646-29.127 10.591-87.381 87.381-87.381 230.369 0 320.398l195.946 195.946c87.381 87.381 230.369 87.381 320.398 0 42.367-42.366 66.198-100.621 66.198-158.875s-23.83-116.509-66.198-158.875l-111.212-113.862c-15.888-15.888-39.719-15.888-55.606 0s-15.887 39.718 0 55.606l111.213 111.212c58.254 58.254 58.254 150.932 0 206.538-58.254 58.254-150.932 58.254-206.539 0l-195.946-195.945c-58.254-58.254-58.254-150.931 0-206.538 15.888-15.888 15.888-39.719 0-55.606-7.943-5.295-18.534-10.592-29.127-10.592zM257.836-84.682c-60.901 0-116.509 23.83-158.875 66.198-42.366 42.366-66.198 100.621-66.198 158.875s23.831 116.509 66.198 158.875l111.212 111.213c15.888 15.887 39.719 15.887 55.606 0s15.888-39.719 0-55.606l-111.212-111.212c-58.254-58.254-58.254-150.932 0-206.539 26.478-26.478 63.55-42.366 103.268-42.366s76.789 15.888 103.269 42.366l195.946 195.946c26.48 26.48 42.366 63.551 42.366 103.269s-15.887 76.789-42.366 103.269c-15.888 15.887-15.888 39.718 0 55.605s39.719 15.888 55.606 0c42.366-42.366 66.198-100.621 66.198-158.875 0-60.901-23.831-116.509-66.198-158.875l-195.946-195.946c-42.367-42.367-97.974-66.198-158.876-66.198z"  horiz-adv-x="1024" />

    
    <glyph glyph-name="icon-test" unicode="&#58891;" d="M689.2 151.2c6-16.3 15.7-36.7 33.1-57.9 0.4-0.6 0.9-1.1 1.4-1.7 37.2-45 6.3-112.8-52.1-112.8H369.1c-58.4 0-90 68.5-52 112.8 1.7 2 3.4 4 5 5.9 13.1 16 21.4 31.4 27 44.8-104 58.8-174.5 171.9-174.5 302 0 190.4 151 344.8 337.4 344.8 186.3 0 337.4-154.4 337.4-344.8 0-123.9-64.2-232.3-160.2-293.1zM512 668.5c-121.2 0-219.3-100.3-219.3-224.1S390.9 220.3 512 220.3c121.1 0 219.3 100.3 219.3 224.1S633.1 668.5 512 668.5z m0-344.9c-65.2 0-118.1 54.1-118.1 120.7S446.7 565 512 565c65.2 0 118.1-54.1 118.1-120.7S577.2 323.6 512 323.6z m0 0"  horiz-adv-x="1024" />

    
    <glyph glyph-name="guanbimeiyan" unicode="&#58988;" d="M801.6 256c7.2 10.4 18.4 16 28 16V448c0 27.2-4 54.4-8 80-32 156.8-182.4 288.8-367.2 270.4-57.6-6.4-108.8-25.6-154.4-54.4 24.8-10.4 72-29.6 72-29.6 35.2-14.4 35.2-63.2 0-77.6 0 0-69.6-23.2-72-29.6-10.4-25.6-28.8-73.6-28.8-73.6-14.4-36-61.6-36-76 0l-22.4 56c-18.4-44-26.4-92-26.4-142.4v-320.8c0-77.6 47.2-125.6 125.6-125.6h175.2c-12 4-24.8 8.8-36.8 14.4-112 52.8-165.6 191.2-149.6 312.8 2.4 14.4 8 19.2 22.4 20.8 100.8 10.4 304.8 52.8 327.2 151.2 2.4 12.8 4 23.2 6.4 36 4-4 6.4-8.8 6.4-12.8C738.4 376 717.6 317.6 717.6 326.4c2.4-21.6 3.2-42.4 2.4-64a128 128 0 0 0 31.2 4c17.6 0 34.4-4 50.4-10.4zM645.6 70.4c-28-32-65.6-56-114.4-71.2h177.6c23.2 0 44.8 5.6 62.4 15.2-6.4-0.8-12.8-1.6-19.2-1.6-44.8 0-84 22.4-106.4 57.6zM314.4 236c64 48 137.6 0 137.6 0-73.6 104.8-137.6 0-137.6 0zM535.2 236c57.6 43.2 123.2 8.8 136 1.6 0 0 0.8 0 0.8 0.8-74.4 100.8-136.8-2.4-136.8-2.4zM671.2 237.6c0.8-1.6 1.6-1.6 1.6-1.6l-1.6 1.6zM234.4 548l35.2 90.4 88.8 36-88.8 36L234.4 800l-35.2-90.4-88.8-36 88.8-36 35.2-89.6zM636.8 141.6C636.8 204.8 688.8 256 752 256s114.4-51.2 114.4-114.4-51.2-114.4-114.4-114.4-115.2 51.2-115.2 114.4zM752 223.2c-39.2 0-72.8-27.2-80-65.6h160c-8 38.4-40.8 65.6-80 65.6z m80-98.4H671.2c8.8-44 52-72.8 96.8-64 32.8 7.2 57.6 32 64 64z"  horiz-adv-x="1024" />

    
    <glyph glyph-name="guanbiyuyin" unicode="&#59095;" d="M512 173.6c34.4 0 66.4 8 95.2 22.4L300 632.8v-246.4c0-117.6 95.2-212.8 212-212.8zM724 386.4V676.8C724 793.6 629.6 888.8 512 888.8c-77.6 0-144.8-41.6-182.4-103.2l361.6-512.8c20.8 33.6 32.8 72 32.8 113.6zM858.4 386.4c0 18.4-15.2 33.6-33.6 33.6-18.4 0-33.6-15.2-33.6-33.6 0-64-21.6-124-58.4-171.2l40-56.8c53.6 61.6 85.6 140.8 85.6 228zM691.2-60.8H545.6v102.4c50.4 4.8 98.4 20.8 140 44.8l-38.4 55.2c-40-21.6-85.6-34.4-134.4-34.4-154.4 0-279.2 124.8-279.2 279.2 0 18.4-15.2 33.6-33.6 33.6-18.4 0-33.6-15.2-33.6-33.6 0-178.4 135.2-327.2 312.8-344.8v-102.4H332.8c-18.4 0-33.6-15.2-33.6-33.6 0-18.4 15.2-33.6 33.6-33.6h357.6c18.4 0 33.6 15.2 33.6 33.6 0 18.4-14.4 33.6-32.8 33.6zM236.8 880.8c-11.2 16-33.6 20-49.6 8.8C172 878.4 168 856 179.2 840l608.8-863.2c7.2-9.6 17.6-15.2 28.8-15.2 7.2 0 14.4 2.4 20 6.4 16 11.2 20 33.6 8.8 49.6L236.8 880.8z"  horiz-adv-x="1024" />

    
    <glyph glyph-name="meiyan" unicode="&#58964;" d="M855.424-4.928c-2.688 8.128-52.736 21.44-52.736 21.44-44.736 18.752-44.736 80.384 0 99.328 0 0 47.424 13.312 52.736 21.44 7.936 16.064 21.056 51.008 21.056 51.008 7.936 21.44 26.304 32.256 42.048 32.256l0 225.28c0 34.752-5.312 69.696-10.624 101.952C868.48 748.8 676.224 917.824 439.36 893.696 365.632 885.568 299.84 861.44 241.984 824l0 0c31.68-13.312 92.16-37.504 92.16-37.504 44.8-18.688 44.8-80.32 0-99.264 0 0-89.472-29.504-92.16-37.44C228.928 617.472 205.184 555.84 205.184 555.84c-18.432-45.568-78.912-45.568-97.472 0L78.848 627.904C55.168 571.52 44.736 509.888 44.736 445.568l0-410.304c0-99.264 60.48-160.896 160.64-160.896l223.744 0c-15.744 5.376-31.68 10.816-47.424 18.688-142.208 67.072-210.688 244.16-189.632 399.68 2.688 18.752 10.624 24.128 28.992 26.88 128.96 13.312 389.696 67.008 418.56 193.152 2.624 16 5.312 29.504 7.936 45.568 5.312-5.376 8-10.752 8-16 147.328-187.776 121.152-262.656 121.152-252.032 5.312-51.008 5.312-102.016-7.936-152.832-31.68-128.704-97.408-225.28-231.744-265.408l113.28 0 113.216 0c52.736 0 97.472 21.44 123.648 56.384-5.248 5.44-7.936 10.816-10.56 16.064C876.608-55.936 860.736-21.12 855.424-4.928L855.424-4.928zM855.424-4.928M952.896 96.896l-28.992 72.448-28.8-72.448-71.104-29.376 71.104-29.568 28.8-72.448 28.992 72.448L1024 67.52 952.896 96.896zM952.896 96.896M260.544 174.72c81.536 61.632 176.32 0 176.32 0C342.08 308.8 260.544 174.72 260.544 174.72L260.544 174.72zM260.544 174.72M542.336 174.72c81.536 61.632 176.384 0 176.384 0C623.872 308.8 542.336 174.72 542.336 174.72L542.336 174.72zM542.336 174.72M157.952 574.208l44.736 115.136 113.216 45.568L202.688 780.544 157.952 895.872 113.216 780.544 0 734.912l113.216-45.568L157.952 574.208zM157.952 574.208"  horiz-adv-x="1024" />

    
    <glyph glyph-name="guadianhua" unicode="&#59005;" d="M32 454.4c83.2 89.6 275.2 140.8 505.6 140.8h89.6c236.8 0 422.4-57.6 492.8-140.8 51.2-64 25.6-198.4-19.2-249.6-19.2-25.6-44.8-25.6-51.2-19.2-76.8 12.8-198.4 57.6-236.8 83.2-12.8 19.2-6.4 44.8-6.4 64 6.4 25.6 6.4 38.4-12.8 57.6-6.4 6.4-32 19.2-192 25.6h-64c-153.6 0-185.6-19.2-185.6-19.2-12.8-25.6-12.8-38.4-12.8-64 0-19.2 6.4-38.4-6.4-64-32-25.6-160-64-243.2-76.8-12.8 0-32-6.4-57.6 32-32 44.8-51.2 172.8 0 230.4z"  horiz-adv-x="1152" />

    
    <glyph glyph-name="xingzhuang" unicode="&#58965;" d="M507.93236 895.938252c70.65388 0.775734 137.056737-11.977338 199.208569-38.290246a533.177702 533.177702 0 0 0 163.61788-107.330598c47.009499-45.240825 84.02754-98.611345 111.271328-160.11156 27.18173-61.500216 41.144947-127.406602 41.889652-197.843277 0.775734-66.526974-10.643075-129.175276-34.349515-187.913878a498.859216 498.859216 0 0 0-98.983697-156.077742 542.455484 542.455484 0 0 0-149.096133-112.016033 518.345662 518.345662 0 0 0-184.624764-54.487578c-17.097184-2.327203-35.373484-4.251024-54.766842-5.833522a1345.526665 1345.526665 0 0 0-143.852169-3.44426c-29.105551 0.744705-61.934627 3.102937-98.425169 6.981609-80.738426 7.726314-140.749232 17.77983-179.970358 30.12952-39.221126 12.411749-54.921989 19.331299-47.164646 20.913797 41.144947 6.950579 76.487402 18.152183 105.996335 33.666869 15.514686 8.502048 21.937766 20.665562 19.176152 36.521571-2.699555 15.856009-10.239693 30.781137-22.682471 44.682296-39.624508 43.317004-71.64682 93.770763-96.097965 151.423336C14.596372 254.49907 1.564036 316.619874 0.012567 383.115818c-0.775734 70.405645 12.039396 136.529237 38.445392 198.401806a518.345662 518.345662 0 0 0 108.292509 162.438763c45.830383 46.419941 99.790461 83.158717 161.911264 110.21633C370.875623 881.230329 437.24745 895.193547 507.901331 895.969281z m227.135004-510.52626c0-20.107033 6.950579-37.297305 21.006885-51.632876 13.963217-14.304541 30.998343-21.441296 51.198464-21.441296 20.169092 0 37.483482 7.136756 51.88111 21.410267 14.33557 14.33557 21.503355 31.556871 21.503355 51.663905a68.264619 68.264619 0 0 1-21.503355 51.043317 71.895055 71.895055 0 0 1-51.850081 20.882767c-20.231151 0-37.297305-6.950579-51.229493-20.882767a69.102412 69.102412 0 0 1-21.037914-51.043317z m-292.389774 0c0-20.107033 7.384991-37.54554 22.154972-52.222434 14.738952-14.676893 32.208488-22.030854 52.40861-22.030854 20.975856 0 38.631568 7.353961 52.998167 22.030854a72.267408 72.267408 0 0 1 21.534385 52.222434c0 20.882767-7.167785 38.476421-21.534385 52.811991-14.366599 14.273511-32.022312 21.410267-52.998167 21.410267-20.169092 0-37.669658-7.136756-52.439639-21.410267a70.68491 70.68491 0 0 1-22.123943-52.811991z m-288.883454 1.148086c0-20.107033 7.198814-37.54554 21.565413-52.191404a69.816087 69.816087 0 0 1 51.819052-22.030854c20.975856 0 38.631568 7.353961 53.029197 22.030854a72.14329 72.14329 0 0 1 21.534384 52.191404c0 20.138063-7.198814 37.328335-21.534384 51.663905-14.366599 14.273511-32.022312 21.410267-53.029197 21.410267-20.169092 0-37.452452-7.136756-51.819052-21.410267a70.219469 70.219469 0 0 1-21.534384-51.663905z"  horiz-adv-x="1024" />

    
    <glyph glyph-name="tubiao-" unicode="&#58966;" d="M476.145015 260.350751l0 374.264508 67.004565 0 0-374.264508-67.004565 0ZM574.753071 317.634709l-231.597395-115.67215-29.939146 59.943802 231.597395 115.672149 29.939146-59.943801ZM512-127.500488c-142.311024 0-273.572839 64.936585-360.138302 178.116059a25.974634 25.974634 0 1 0 41.259707 31.56917c76.665132-100.242107 192.891629-157.71598 318.878595-157.71598C733.17401-75.531239 913.108293 104.413034 913.108293 325.557073S733.17401 726.705327 512 726.705327 110.891707 546.761054 110.891707 325.557073a404.874615 404.874615 0 0 1 8.851356-84.277697A25.974634 25.974634 0 0 0 68.932683 230.449951 455.115551 455.115551 0 0 0 58.942439 325.557073c0 249.856 203.231532 453.117502 453.057561 453.117503S965.057561 575.413073 965.057561 325.557073s-203.231532-453.057561-453.057561-453.057561zM578.814751 726.705327H445.185249a74.796956 74.796956 0 0 0-74.707044 74.707044v19.381073A74.796956 74.796956 0 0 0 445.185249 895.500488h133.629502a74.796956 74.796956 0 0 0 74.707044-74.707044v-19.391064a74.796956 74.796956 0 0 0-74.707044-74.697053zM445.185249 843.531239a22.767766 22.767766 0 0 1-22.737795-22.737795v-19.391064a22.767766 22.767766 0 0 1 22.737795-22.737795h133.629502a22.767766 22.767766 0 0 1 22.737795 22.737795V820.793444a22.767766 22.767766 0 0 1-22.737795 22.737795z"  horiz-adv-x="1024" />

    
    <glyph glyph-name="guanbi2" unicode="&#58967;" d="M891.264-5.248a30.784 30.784 0 0 0-21.76 9.024L128.256 745.024a30.72 30.72 0 1 0 43.52 43.52l741.312-741.312a30.848 30.848 0 0 0-21.824-52.48M150.016-5.248a30.72 30.72 0 0 0-21.76 52.544l741.312 741.248a30.784 30.784 0 0 0 43.456-43.52L171.776 3.776a30.72 30.72 0 0 0-21.76-9.024"  horiz-adv-x="1024" />

    
    <glyph glyph-name="guanbishengyin" unicode="&#58986;" d="M126.578 602.453c-61.895 0-109.227-47.331-109.227-105.585v-222.095c0-61.895 47.332-109.226 109.227-109.226h94.663l207.53-214.813c25.487-25.486 50.973-40.05 76.46-40.05 7.281 0 14.563 0 21.845 3.641 21.845 10.923 36.408 32.768 36.408 58.255V227.442L173.91 602.453h-47.331z m862.89-557.056l-65.536 61.895c47.332 83.74 76.46 178.404 76.46 276.708 0 131.072-47.332 258.503-134.714 360.448-14.563 14.564-36.409 18.204-50.972 3.64-14.564-14.563-18.205-36.408-3.641-50.972C883.883 609.736 927.573 496.868 927.573 384c0-80.1-21.845-156.558-58.254-222.094L763.733 263.85c10.923 40.05 18.205 80.1 18.205 120.149 0 83.74-25.486 163.84-76.459 233.017-10.923 18.204-32.768 21.845-50.972 7.282s-21.846-32.768-7.282-50.973c40.05-54.613 61.895-123.79 61.895-189.326 0-21.845-3.64-43.69-7.282-61.895L563.484 453.177V791.78c0 29.127-14.563 50.972-36.408 58.254-29.128 10.922-65.536 0-98.304-36.41l-120.15-120.148L152.064 846.393c-14.564 14.563-36.409 14.563-50.972 0-14.564-14.564-14.564-36.409 0-50.973l837.404-800.995c7.282-7.282 14.564-10.923 25.486-10.923 10.923 0 18.205 3.641 25.486 10.923 14.564 14.563 14.564 36.409 0 50.972z"  horiz-adv-x="1024" />

    
    <glyph glyph-name="yuyin1" unicode="&#59157;" d="M544.832 1.472v-65.344h130.176c16.576 0 29.952-14.336 29.952-32.064s-13.44-32.064-29.952-32.064H350.272c-16.576 0-30.016 14.336-30.016 32.064s13.44 32.064 30.016 32.064h130.176v65.344C300.8 18.304 160 174.08 160 352V448h64.128v-96c0-154.24 126.208-288 288.512-288s288.512 133.76 288.512 288V448h64.128v-96c0-177.984-140.8-333.696-320.448-350.528zM512.64 896c123.84 0 224.256-101.888 224.256-227.584v-312.832C736.896 229.888 636.48 128 512.64 128c-123.904 0-224.32 101.888-224.32 227.584V668.416C288.32 794.112 388.8 896 512.64 896z"  horiz-adv-x="1024" />

    
    <glyph glyph-name="qiehuanshexiangtou" unicode="&#58969;" d="M1059.803 738.45c60.453 0 109.568-52.919 109.568-118.052v-630.2c0-65.425-49.115-118.198-109.568-118.198h-949.43C49.883-128 0.73-75.081 0.73-9.801V620.398c0 65.133 49.116 118.052 109.605 118.052h144.567C289.573 738.45 363.154 896 401.773 896h365.569c38.692 0 112.347-157.55 146.944-157.55h145.517zM860.855 358.583a283.502 283.502 0 0 1-48.567 159.159l-1.17 2.194c-3.804 5.559-7.973 10.679-12.032 15.835-0.512 0.659-0.915 1.317-1.463 1.975a272.384 272.384 0 0 1-102.766 78.812l-3.291 1.609a311.735 311.735 0 0 1-19.42 7.241c-2.377 0.768-4.717 1.682-7.058 2.34a373.98 373.98 0 0 1-17.371 4.609c-3.292 0.804-6.4 1.572-9.692 2.23-1.536 0.293-3.108 0.805-4.681 1.098-4.315 0.731-8.777 1.024-13.056 1.682-2.999 0.366-6.034 0.914-9.033 1.17-7.314 0.658-14.629 1.097-21.797 1.207-1.316 0-2.633 0.11-3.913 0.11-0.256 0-0.402-0.11-0.658-0.11A268.507 268.507 0 0 1 427.63 588.91a34.121 34.121 0 0 1-8.12-46.958 32.585 32.585 0 0 1 46.008-8.302 204.361 204.361 0 0 0 121.6 38.583c6.253 0 12.397-0.402 18.395-0.95 1.829-0.257 3.657-0.513 5.632-0.659 4.937-0.658 9.911-1.317 14.738-2.34 2.085-0.403 4.316-1.098 6.4-1.463 4.828-1.061 9.546-2.231 14.263-3.658 1.427-0.548 2.853-1.097 4.425-1.609a160.11 160.11 0 0 0 17.226-6.583c30.83-13.531 57.892-34.377 78.92-60.416l0.366-0.512c29.66-36.864 47.543-84.114 47.543-135.46h-55.113L828.05 223.56l88.21 135.022h-55.405zM705.426 183.552a205.385 205.385 0 0 0-139.74-37.669l-6.948 0.951c-4.388 0.659-8.85 1.17-13.165 2.085-2.634 0.548-5.23 1.207-7.973 1.828-4.315 1.098-8.485 2.012-12.654 3.292a326.912 326.912 0 0 1-6.034 2.011 163.913 163.913 0 0 0-17.225 6.693c-5.376 2.523-10.716 5.01-15.945 7.9l-0.768 0.365a211.09 211.09 0 0 0-47.543 36.498l-0.658 0.768a183.003 183.003 0 0 0-12.435 14.08c-0.731 1.097-1.682 2.121-2.45 3.292a215.808 215.808 0 0 0-45.86 133.23h55.113l-88.138 135.021-88.173-135.022h55.113c0-59.245 18.14-114.102 48.713-159.414 0.366-0.659 0.658-1.317 1.06-1.975 3.11-4.608 6.657-8.924 10.058-13.276 1.28-1.719 2.487-3.437 3.767-5.01 5.12-6.217 10.313-12.105 15.798-17.774 0.549-0.512 1.061-1.17 1.573-1.719 18.432-18.797 39.314-34.742 61.915-47.36 0.659-0.402 1.17-0.804 1.829-1.097 6.546-3.51 13.166-6.802 20.005-9.837l5.083-2.378c5.742-2.486 11.74-4.608 17.774-6.692l8.594-2.926c5.23-1.572 10.606-2.889 16.091-4.206 3.658-0.914 7.168-1.828 10.826-2.486 1.572-0.366 2.998-0.805 4.425-1.061 5.12-0.914 10.203-1.463 15.433-2.085l5.486-0.804c9.142-0.914 18.395-1.573 27.538-1.573a269.531 269.531 0 0 1 157.55 51.054 34.414 34.414 0 0 1 8.082 47.14 32.805 32.805 0 0 1-46.08 8.156z"  horiz-adv-x="1170" />

    
    <glyph glyph-name="shengyin" unicode="&#59015;" d="M510.012698-127.544316a121.941891 121.941891 0 0 0-81.805881 46.399273L191.736693 128.546438H63.915004c-62.632627 0-63.910844 62.05743-63.910844 127.821688V512.011504c0 65.764259 1.278217 127.821689 63.910844 127.821689h127.821689L428.206817 849.524673A119.960655 119.960655 0 0 0 509.37359 895.47657 58.350601 58.350601 0 0 0 575.201759 831.565726v-894.751821a58.28669 58.28669 0 0 0-65.189061-64.358221z m190.454316 240.560419a39.432991 39.432991 0 0 0-22.368795 7.477568 41.414227 41.414227 0 0 0-8.30841 55.474613l14.699494 21.537955a295.523744 295.523744 0 0 1 73.497471 186.747487 267.466884 267.466884 0 0 1-68.384603 179.972938c-6.391084 9.267072-13.421277 18.661967-19.812362 28.312504a40.90294 40.90294 0 0 0 8.947518 55.474613 36.173538 36.173538 0 0 0 52.406893-9.139251q9.586627-13.61301 19.173253-26.650822a348.058458 348.058458 0 0 0 83.084098-227.969982 378.799575 378.799575 0 0 0-87.557857-233.91369l-14.699494-20.771025a37.004379 37.004379 0 0 0-30.677206-16.552908z m0 0l129.099906-134.915793a35.214875 35.214875 0 0 0-24.925229 9.84227 40.647297 40.647297 0 0 0-3.834651 56.113721 468.466489 468.466489 0 0 1 0 680.330939 40.647297 40.647297 0 0 0 3.834651 56.113721 36.237449 36.237449 0 0 0 53.046-3.642918 549.633262 549.633262 0 0 0 0-785.208634 36.876557 36.876557 0 0 0-28.120771-13.549099z m0 0"  horiz-adv-x="1024" />

    
    </font>
</defs>
</svg>
