<?xml version="1.0" standalone="no"?>
<!DOCTYPE svg PUBLIC "-//W3C//DTD SVG 1.1//EN" "http://www.w3.org/Graphics/SVG/1.1/DTD/svg11.dtd" >
<!--
2013-9-30: Created.
-->
<svg>
<metadata>
Created by iconfont
</metadata>
<defs>

<font id="iconfont" horiz-adv-x="1024" >
  <font-face
    font-family="iconfont"
    font-weight="500"
    font-stretch="normal"
    units-per-em="1024"
    ascent="896"
    descent="-128"
  />
    <missing-glyph />
    
    <glyph glyph-name="dianpu" unicode="&#59044;" d="M974.857 441.814V105.43c0-89.529-69.257-162.858-155.7-162.858H333.414c-86.443 0-155.7 73.329-155.7 162.858V433.843a275.1 275.1 0 0 0-26.657 15.943A120 120 0 0 0 118.23 615.9l116.785 175.157a77.143 77.143 0 0 0 64.2 34.372h540a77.143 77.143 0 0 0 64.157-34.372L1020.157 615.9a120 120 0 0 0-32.828-166.114 297.429 297.429 0 0 0-12.472-7.972z m-728.571-28.328v-308.057c0-52.5 39.428-94.286 87.128-94.286h485.743c47.657 0 87.129 41.786 87.129 94.286v309.6a132.77 132.77 0 0 0-21.643-1.758c-63.643 0-115.5 21.043-150.986 62.315-41.1-39.772-96.086-62.315-158.657-62.315-68.143 0-128.914 21.772-170.786 61.715-35.485-40.886-87.128-61.715-150.428-61.715-2.486 0-5.015 0.043-7.5 0.215z m153.771 154.028a34.286 34.286 0 0 0 30.857-16.971c25.115-42.986 78.172-68.7 144.086-68.7 57.129 0 103.714 25.543 133.114 69.728a34.286 34.286 0 0 0 60.3-4.285c20.872-43.972 58.929-65.443 116.229-65.443 17.743 0 39.257 7.886 64.414 24.857a51.429 51.429 0 0 1 14.057 71.143l-116.785 175.2a8.571 8.571 0 0 1-7.115 3.814h-540A8.571 8.571 0 0 1 292.1 753L175.314 577.886a51.429 51.429 0 0 1 14.057-71.143c25.158-16.972 46.715-24.857 64.415-24.857 57.557 0 95.657 21.643 116.528 66a34.286 34.286 0 0 0 29.229 19.671h0.514zM447.714 135.429h257.143a34.286 34.286 0 1 1 0 68.571H447.714a34.286 34.286 0 1 1 0-68.571z"  horiz-adv-x="1121" />

    
    <glyph glyph-name="shiming" unicode="&#59178;" d="M377.6 582.4h268.8c12.8 0 19.2 12.8 19.2 19.2 0 12.8-12.8 19.2-19.2 19.2h-25.6V787.2C620.8 844.8 576 896 512 896S403.2 844.8 403.2 787.2v-153.6h-25.6c-12.8 0-19.2-12.8-19.2-19.2 0-19.2 6.4-32 19.2-32zM448 672V787.2c0 38.4 32 64 64 64 38.4 0 64-32 64-64v-153.6H448v38.4z m64 134.4c-12.8 0-19.2-12.8-19.2-19.2 0-12.8 12.8-19.2 19.2-19.2 12.8 0 19.2 12.8 19.2 19.2 0 12.8-6.4 19.2-19.2 19.2z m332.8-556.8c0 12.8-12.8 19.2-19.2 19.2H601.6c-12.8 6.4-25.6-6.4-25.6-19.2s12.8-19.2 19.2-19.2h224c19.2 0 25.6 6.4 25.6 19.2zM179.2 140.8c0-51.2 38.4-89.6 89.6-89.6h134.4c51.2 0 89.6 38.4 89.6 89.6 0 32-19.2 64-44.8 76.8 12.8 25.6 25.6 64 25.6 102.4 0 96-57.6 179.2-134.4 179.2-76.8-6.4-140.8-83.2-140.8-179.2 0-38.4 6.4-70.4 25.6-102.4-25.6-19.2-44.8-44.8-44.8-76.8zM332.8 448c51.2 0 89.6-57.6 89.6-128 0-76.8-38.4-134.4-89.6-134.4-51.2 0-89.6 57.6-89.6 134.4 0 70.4 38.4 128 89.6 128z m-83.2-268.8c25.6-25.6 51.2-38.4 83.2-38.4s64 12.8 83.2 38.4c19.2-6.4 32-19.2 32-38.4 0-25.6-19.2-44.8-44.8-44.8H268.8c-25.6 0-44.8 19.2-44.8 44.8 0 19.2 6.4 32 25.6 38.4z m352-38.4c-12.8 0-25.6-12.8-25.6-25.6s12.8-19.2 19.2-19.2h89.6c12.8 0 19.2 12.8 19.2 19.2 0 12.8-12.8 19.2-19.2 19.2H601.6z m332.8 576h-268.8v-44.8h268.8c25.6 0 44.8-19.2 44.8-44.8v-665.6c0-25.6-19.2-44.8-44.8-44.8H89.6c-25.6 0-44.8 19.2-44.8 44.8V627.2c0 25.6 19.2 44.8 44.8 44.8h268.8v44.8H89.6C38.4 716.8 0 678.4 0 627.2v-665.6c0-51.2 38.4-89.6 89.6-89.6h844.8c51.2 0 89.6 38.4 89.6 89.6V627.2c0 51.2-38.4 89.6-89.6 89.6z m-108.8-313.6H601.6c-12.8 0-25.6-6.4-25.6-19.2 0-12.8 12.8-19.2 19.2-19.2h224c12.8 0 19.2 12.8 19.2 19.2 6.4 12.8 0 19.2-12.8 19.2z"  horiz-adv-x="1024" />

    
    <glyph glyph-name="tips" unicode="&#58918;" d="M187.732004 739.473221c-13.330296 13.331627-34.948251 13.331627-48.263899 0-13.335622-13.326301-13.335622-34.937598 0-48.274552l48.263899-48.263899c13.331627-13.331627 34.933604-13.331627 48.269226 0 13.326301 13.326301 13.326301 34.932272 0 48.263899L187.732004 739.473221 187.732004 739.473221 187.732004 739.473221zM836.261339 739.473221l-48.269226-48.274552c-13.326301-13.331627-13.326301-34.937598 0-48.263899 13.315648-13.331627 34.932272-13.331627 48.269226 0l48.258573 48.263899c13.336953 13.336953 13.336953 34.942925 0 48.274552C871.194942 752.799522 849.592966 752.799522 836.261339 739.473221L836.261339 739.473221 836.261339 739.473221zM102.402665 469.33733L34.139994 469.33733C15.28903 469.33733 0.002666 454.054961 0.002666 435.210655c0-18.854958 15.28237-34.137328 34.137328-34.137328l68.262672 0c18.850963 0 34.132002 15.28237 34.132002 34.137328C136.534667 454.054961 121.253629 469.33733 102.402665 469.33733L102.402665 469.33733 102.402665 469.33733zM989.85468 469.33733l-68.264003 0c-18.849632 0-34.137328-15.28237-34.137328-34.126675 0-18.854958 15.286364-34.137328 34.137328-34.137328l68.264003 0c18.849632 0 34.142654 15.28237 34.142654 34.137328C1023.997334 454.054961 1008.704312 469.33733 989.85468 469.33733L989.85468 469.33733 989.85468 469.33733zM477.862672 861.867998l0-68.264003c0-18.854958 15.28237-34.13067 34.132002-34.13067 18.844306 0 34.137328 15.275712 34.137328 34.13067L546.132002 861.867998C546.132002 880.71763 530.838979 896 511.994674 896 493.145042 896 477.862672 880.71763 477.862672 861.867998L477.862672 861.867998 477.862672 861.867998zM273.066668 384.007992c0 131.955413 106.967267 238.928006 238.928006 238.928006 131.960739 0 238.933332-106.972593 238.933332-238.928006 0-131.960739-106.972593-238.937327-238.933332-238.937327C380.033935 145.07066499999996 273.066668 252.048585 273.066668 384.007992L273.066668 384.007992 273.066668 384.007992zM204.803996 384.007992c0-169.675982 137.525348-307.211982 307.190677-307.211982S819.190677 214.33201099999997 819.190677 384.007992c0 169.665329-137.530675 307.190677-307.196004 307.190677S204.803996 553.673321 204.803996 384.007992L204.803996 384.007992 204.803996 384.007992zM443.730671-93.86266699999999c0-18.838979 15.28237-34.137328 34.132002-34.137328l68.269329 0c18.849632 0 34.132002 15.297017 34.132002 34.137328 0 18.860284-15.28237 34.132002-34.132002 34.132002l-68.269329 0C459.01304-59.730665000000045 443.730671-75.00238200000001 443.730671-93.86266699999999L443.730671-93.86266699999999 443.730671-93.86266699999999zM375.467999 8.533337999999958c0-18.834985 15.281038-34.132002 34.126675-34.132002l204.799999 0c18.849632 0 34.132002 15.297017 34.132002 34.132002 0 18.865611-15.28237 34.142654-34.132002 34.142654L409.594674 42.67599199999995C390.743711 42.674661000000015 375.467999 27.398949000000016 375.467999 8.533337999999958L375.467999 8.533337999999958 375.467999 8.533337999999958zM375.467999 8.533337999999958"  horiz-adv-x="1025" />

    
    <glyph glyph-name="liwu1" unicode="&#58956;" d="M844 633H642.7c21.4 17.1 35.3 43.1 35.3 72.6 0 51.6-41.8 93.4-93.4 93.4-29.5 0-55.5-14-72.6-35.3C494.9 785 468.9 799 439.4 799c-51.6 0-93.4-41.8-93.4-93.4 0-29.5 14-55.5 35.3-72.6H180c-45.8 0-83-37.2-83-83v-41.5c0-45.6 37.3-83 83-83h20.8v-332c0-68.5 56-124.5 124.5-124.5h373.5c68.5 0 124.5 56 124.5 124.5v332H844c45.7 0 83 37.4 83 83V550c0 45.8-37.2 83-83 83z m-332 14l-0.3 0.2c0.1 0.1 0.2 0.3 0.3 0.4 0.1-0.1 0.2-0.3 0.3-0.4l-0.3-0.2z m72.6 110.5c28.6 0 51.9-23.3 51.9-51.9 0-28.6-23.3-51.9-51.9-51.9s-51.9 23.3-51.9 51.9c0.1 28.6 23.3 51.9 51.9 51.9z m-145.2 0c28.6 0 51.9-23.3 51.9-51.9 0-28.6-23.3-51.9-51.9-51.9s-51.9 23.3-51.9 51.9c0 28.6 23.3 51.9 51.9 51.9zM180 467c-22.9 0-41.5 18.6-41.5 41.5V550c0 22.9 18.6 41.5 41.5 41.5h235.8l-94.7-54.7c-9.9-5.7-13.3-18.4-7.6-28.3 5.7-9.9 18.4-13.3 28.3-7.6l149.3 86.2V467H180z m145.3-456.5c-45.8 0-83 37.2-83 83v332h249v-415h-166z m456.5 83c0-45.8-37.2-83-83-83h-166v415h249v-332z m103.7 415c0-22.9-18.6-41.5-41.5-41.5H532.8V587.1l149.3-86.2c9.9-5.7 22.6-2.3 28.3 7.6 5.7 9.9 2.3 22.6-7.6 28.3l-94.7 54.7H844c22.9 0 41.5-18.6 41.5-41.5v-41.5z"  horiz-adv-x="1024" />

    
    <glyph glyph-name="laoshi1" unicode="&#58916;" d="M426.53203906 220.70679656000004l1.07184469-23.38485468-13.81281562-22.85359219 42.37048499-185.08427157-59.85553406-29.08893281-59.86485375 29.08893281 42.36116438 185.08427157-13.81281469 22.85359219 1.06252406 23.38485468c26.37669937 1.45398094 34.11262125 1.45398094 60.48932063 0zM384.66485469 864h586.56931968c18.31456312 0 34.97941781-7.48427156 47.05864125-19.57281562a66.27728156 66.27728156 0 0 0 19.57281563-47.04932063V431.06796094c0-18.26796094-7.49359219-34.93281563-19.57281563-47.01203907l-0.05592281-0.04660125v-0.05592281a66.64077656 66.64077656 0 0 0-47.00271844-19.52621343H711.91301l-91.74058313-72.07456313-32.71456312-25.70563125 6.2912625 41.06563125 7.62407719 50.14368937 32.56543687-4.87456312-1.35145594-9.04077656 150.40310719 118.18252406 20.38368938-25.84543688-49.47262125-38.89398h217.30485375c9.28310719 0 17.68077656 3.76543688 23.76699 9.85165032l0.05592281 0.05592187a33.58135969 33.58135969 0 0 1 9.81436875 23.76699V797.37786375a33.73980563 33.73980563 0 0 1-33.63728156 33.67456312H384.65553406a33.63728156 33.63728156 0 0 1-33.67456312-33.67456312V773.40582563h-32.95689282V797.35922344c0 18.31456312 7.49359219 34.93281563 19.51689282 47.01203906l0.10252406 0.05592187A66.32388375 66.32388375 0 0 0 384.65553406 864z m202.81165031-334.42485469c11.30563125 150.44038875-9.8982525 237.07339781-190.25708719 212.91495188-61.20699-8.16466031-127.68932063 9.80504812-165.62330156-17.96970844-47.68310719-44.989515-51.05708719-112.47844688-38.12038781-191.66446687a89.79262125 89.79262125 0 0 1-8.59339875-5.26601907l-8.49087375-5.75067937-0.15844594-10.196505c-0.4287375-26.37669937 2.86135969-48.65242687 9.963495-65.7087375 6.46834969-15.49980562 15.98446594-27.04776656 28.74407719-34.01009719 15.16427156-51.69087375 36.96466031-90.49165031 64.21747594-118.41553406 29.70407812-30.44038875 65.45708719-47.72970844 105.88893187-54.55223344l3.63495188-0.57786375 3.62563125 0.72699c44.78446594 9.469515 80.52815531 27.5417475 109.04854312 57.69320438 26.42330063 27.92388375 46.13592188 65.643495 60.62912625 115.9922325 12.27495188 7.15805813 21.45553406 18.79922344 27.68155406 34.15922343 6.82252406 16.96310719 9.95417438 38.84737875 9.52543688 64.69281563l-0.14912625 10.196505-8.50019438 5.75067937c-1.0252425 0.72699-2.050485 1.35145594-3.05708718 1.9852425z m-438.33786469-290.46058219l-8.02485375 0.04660219-6.15145687-5.31262125c-43.19067938-37.68232969-68.50485469-92.61669937-83.23106719-148.66019437C37.51767031 30.831844690000025 33.26757313-24.68038875000002 32.4287375-65.59689280999999L32-87.29475749999995h711.90990281l2.06912625 19.03223344c5.31262125 49.27689281-3.08504813 111.70485469-21.45553406 168.90407718-17.48504813 54.64543688-44.38368938 105.37631063-77.38718438 136.54368938l-6.47767031 6.13281563-8.74252406-0.27961125-103.05553406-3.53242782v-42.46368937l95.28233062 3.24349593c24.77359219-26.47922344 45.60466031-67.68466031 59.99533969-112.62757312 14.31611625-44.54213625 21.98679656-92.17864031 20.87766937-132.37747594H75.59145594c1.73359219 35.17514531 6.31922344 77.68543687 17.24271843 119.24504907 12.07922344 46.13592188 31.93165031 90.92970844 64.31068032 122.07844593l86.38135875-0.76427156v42.41708719l-94.40621344 0.85747593z m653.62019438 347.46407719v-25.07184375h137.36388375v25.07184375H802.749515z m-144.97864032 0v-25.07184375h123.18757219v25.07184375H657.77087375z m213.10135875 84.89009719v-25.07184469h69.24116532v25.07184469h-69.250485z m-55.60543687 0v-25.07184469h27.83068031v25.07184469h-27.83068031z m-80.68660125 0v-25.07184469h55.66135875v25.07184469H734.57087375z m-76.80932063 0v-25.07184469h55.54951407v25.07184469h-55.54951407z m0 78.51495188v-25.07184469h282.34252407v25.07184469H657.77087375zM216.07767031 493.09514531c0.87611625-12.79689281 3.04776656-23.58058219 6.58019344-31.98757219 3.52310719-8.54679656 8.35106813-14.05514531 14.49320438-15.93786468l10.42951406-3.243495 2.85203906-10.53203907c13.44-49.51922344 32.76116531-85.56116531 56.96621344-110.39067937 22.56466031-23.1052425 49.72427156-36.62912625 80.54679656-42.46368938 35.02601906 7.95961125 62.84737875 22.26640781 84.78757219 45.40893188 23.23572844 24.54058219 40.58097094 59.56660219 53.53631156 107.88349594l2.70291188 10.04737781 9.86097093 3.48582562c5.99301 2.07844688 10.71844687 7.72660219 14.2042725 16.27339782 3.33669938 8.36038875 5.45242687 18.89242687 6.3192225 31.36310718-5.75067937-0.05592188-11.59456312-0.19572844-18.26796093-1.01592281l-2.64699 8.9382525-5.65747594-0.34485375-3.243495 17.14951406a170.41398094 170.41398094 0 0 1-11.39883469 37.20699c-15.07106813-6.37514531-31.98757313 5.36854406-47.24504906 14.15767032l-7.73592188-24.25165032-12.46135968 1.64038782 1.64038875 14.78213625-13.1417475-21.11067938-11.6877675 2.32077656 11.50135968 31.30718438c-64.40388375-57.15262125-139.72194188-53.48038875-181.71029156-21.5487375-1.35145594-3.243495-2.60970844-6.57087375-3.75611625-9.95417531-2.89864031-11.59456312-6.15145594-26.66563125-9.04077656-38.16699l-0.77359219-4.203495-0.2982525 0.04660218c-0.62446594-2.32077656-1.21165031-4.34330063-1.78019437-6.13281562-5.27533969 3.476505-16.00310719 0.72699-25.57514532-0.72699094z"  horiz-adv-x="1073" />

    
    <glyph glyph-name="shangchuan" unicode="&#58917;" d="M512 896a512 512 0 1 1 0-1024A512 512 0 0 1 512 896z m0-955.712A443.712 443.712 0 1 0 512 827.712a443.712 443.712 0 0 0 0-887.424zM536.384 612.48l-1.536 1.28a44.544 44.544 0 0 1-8.512 5.568l-1.728 1.024h-2.88l-5.12 1.216L512 622.912h-4.928l-5.12-1.152h-2.944l-1.536-1.024a44.544 44.544 0 0 1-8.512-5.632l-1.536-1.216-153.6-157.888a34.176 34.176 0 1 1 48.96-47.616l95.104 96.448V179.2a34.112 34.112 0 1 1 68.224 0V504.832l95.104-97.6a34.176 34.176 0 1 1 48.96 47.616L536.384 612.48z"  horiz-adv-x="1024" />

    
    <glyph glyph-name="jiahao" unicode="&#59013;" d="M512-62.01661100000001c-119.648434 0-232.1288 46.367961-316.736783 130.559656-84.640667 84.255342-131.263217 196.255772-131.263217 315.455235 0 119.168499 46.624271 231.199892 131.232254 315.424271 84.607983 84.191695 197.088348 130.559656 316.736783 130.559656s232.1288-46.367961 316.704099-130.559656c84.67163-84.224378 131.263217-196.255772 131.263217-315.391587 0.032684-119.199462-46.591587-231.232576-131.263217-315.455235C744.1288-15.615965999999958 631.648434-62.01661100000001 512-62.01661100000001zM512 766.016611c-102.623626 0-199.071738-39.743475-271.583282-111.936783-72.480581-72.12794-112.416718-168.063432-112.416718-270.079828s39.903454-197.951888 112.384034-270.047144c72.511544-72.191587 168.959656-111.936783 271.583282-111.936783 102.592662 0 199.071738 39.743475 271.583282 111.936783 72.480581 72.160624 112.416718 168.063432 112.384034 270.079828 0 102.016396-39.903454 197.919204-112.384034 270.016181C711.071738 726.240452 614.592662 766.016611 512 766.016611zM736.00086 415.99914L544.00086 415.99914 544.00086 607.99914c0 17.664722-14.336138 32.00086-32.00086 32.00086s-32.00086-14.336138-32.00086-32.00086l0-192L288.00086 415.99914c-17.664722 0-32.00086-14.336138-32.00086-32.00086s14.336138-32.00086 32.00086-32.00086l192 0 0-192c0-17.695686 14.336138-32.00086 32.00086-32.00086s32.00086 14.303454 32.00086 32.00086L544.00258 351.99914l192 0c17.695686 0 32.00086 14.336138 32.00086 32.00086S753.696546 415.99914 736.00086 415.99914z"  horiz-adv-x="1024" />

    
    <glyph glyph-name="shipin" unicode="&#58912;" d="M420.238222 156.444444a25.258667 25.258667 0 0 0-8.931555 1.592889c-7.566222 2.844444-12.401778 9.102222-12.401778 15.928889V594.090667c0 6.826667 4.835556 13.027556 12.401778 15.815111a25.031111 25.031111 0 0 0 22.812444-2.56l298.496-210.090667a16.156444 16.156444 0 0 0 7.452445-13.255111c0-5.12-2.673778-9.955556-7.452445-13.255111l-298.496-210.090667a24.632889 24.632889 0 0 0-13.880889-4.209778zM512-128c-282.282667 0-512 229.660444-512 512 0 282.282667 229.717333 512 512 512 74.524444 0 146.318222-15.644444 213.560889-46.535111a42.666667 42.666667 0 1 0-35.669333-77.539556A422.741333 422.741333 0 0 1 512 810.666667C276.707556 810.666667 85.333333 619.292444 85.333333 384c0-235.235556 191.374222-426.666667 426.666667-426.666667 235.235556 0 426.666667 191.431111 426.666667 426.666667a424.391111 424.391111 0 0 1-71.111111 235.918222 42.666667 42.666667 0 1 0 71.054222 47.274667A509.667556 509.667556 0 0 0 1024 384c0-282.339556-229.660444-512-512-512z"  horiz-adv-x="1024" />

    
    <glyph glyph-name="tubiao_UMEqianxian" unicode="&#58919;" d="M651.722787 307.97122c0 15.971035-8.413313 41.733835-11.075152 57.03941-16.874159-68.732489-64.454533-144.309706-128.671401-183.001439-127.340482-76.813072-250.830804-51.240403-304.210185 37.360813s-40.070185 206.625261 48.626097 273.171239c58.750592 44.015411 69.683145 55.233162 142.598524 59.178388-26.09553 36.695353-55.518359 43.445017-113.223228 44.585805-158.474493 3.1847-273.979297-115.26714-273.979297-277.021399s143.216451-292.849835 319.848489-292.849836 320.086153 119.78276 320.086153 281.537019z m40.640579 342.664253c-176.632038 0-319.800956-131.095576-319.800956-292.849835 0-46.67725 21.24718-65.880518 37.550945-84.703523 15.543239 69.778211 74.816692 145.593093 148.920391 175.871513 115.172074 47.057513 188.420183 22.673165 224.782807-66.545978s13.404261-189.560971-83.752866-283.72353c-111.179316-107.756951-364.576893-201.776911-408.782436-198.06935 38.31147-14.877779 230.53428-11.88321 368.331988 30.088289 180.957527 55.138096 352.551084 265.185722 352.551084 426.939981s-143.168918 292.992434-319.800957 292.992433z m18.585341 33.272989a95.065683 95.065683 0 1 1-95.065682 95.065683 95.065683 95.065683 0 0 1 95.065682-95.160749zM265.375853 633.713782a92.261245 92.261245 0 0 1 9.506568-0.570394 86.747435 86.747435 0 1 1-83.610268 108.992805s-14.782714-52.618855-71.822123 2.614306c-0.095066 0.095066 35.887295-102.05301 145.925823-111.036717z"  horiz-adv-x="1024" />

    
    <glyph glyph-name="dongtaigongkai" unicode="&#59043;" d="M46.08 135.68C-33.28 271.36 0 473.6 81.92 599.04c12.8 17.92 35.84 23.04 53.76 10.24 7.68-5.12 15.36-15.36 15.36-23.04 2.56-7.68 2.56-15.36 5.12-20.48 7.68 28.16 20.48 56.32 35.84 84.48 43.52 79.36 117.76 145.92 194.56 176.64 20.48 7.68 43.52-2.56 51.2-23.04 2.56-10.24 2.56-20.48 0-30.72-7.68-17.92-15.36-35.84-20.48-53.76 58.88 53.76 130.56 99.84 204.8 128 156.16 58.88 332.8 40.96 399.36-138.24 7.68-20.48-2.56-43.52-23.04-51.2h-2.56c-133.12-35.84-181.76-122.88-227.84-204.8-64-115.2-125.44-222.72-340.48-217.6 15.36-7.68 33.28-15.36 58.88-23.04 20.48-5.12 33.28-28.16 25.6-48.64-2.56-10.24-10.24-17.92-20.48-23.04-99.84-56.32-271.36-97.28-384-51.2-15.36-23.04-38.4-71.68-23.04-148.48h107.52c12.8 0 23.04-10.24 23.04-23.04s-10.24-28.16-23.04-28.16H51.2c-20.48-2.56-38.4 10.24-43.52 30.72-23.04 104.96 12.8 176.64 38.4 215.04zM332.8-110.08c-12.8 0-23.04 10.24-23.04 23.04s10.24 23.04 23.04 23.04h409.6c12.8 0 23.04-10.24 23.04-23.04s-10.24-23.04-23.04-23.04H332.8zM112.64 176.64c51.2-56.32 199.68-20.48 261.12 0-33.28 20.48-51.2 43.52-61.44 61.44-12.8 28.16-20.48 89.6 33.28 81.92 238.08-30.72 294.4 66.56 353.28 171.52 48.64 87.04 99.84 179.2 230.4 227.84-122.88 207.36-481.28-25.6-545.28-168.96-5.12-15.36-20.48-28.16-38.4-28.16-20.48 0-38.4 17.92-38.4 40.96 0 0 2.56 58.88 20.48 133.12-25.6-25.6-48.64-53.76-69.12-87.04C227.84 552.96 212.48 486.4 230.4 427.52c5.12-17.92-2.56-35.84-17.92-43.52-17.92-12.8-40.96-7.68-53.76 10.24-17.92 25.6-35.84 53.76-51.2 81.92-33.28-92.16-46.08-212.48 5.12-299.52z"  horiz-adv-x="1024" />

    
    <glyph glyph-name="huodong1" unicode="&#59442;" d="M957.676455 389.522784c0 143.330406-79.853699 259.521708-229.575675 259.521708-32.489972 0-61.47512-5.750981-87.279833-15.786545C600.75237 749.664144 507.202741 830.709995 364.770797 830.709995c-194.638979 0-298.448276-151.049205-298.448276-337.377914 0-160.204725 76.94444-294.042943 222.183312-328.501756-2.827395-5.048993-4.907777-10.376325-5.449105-16.117073-4.02364 3.085268-6.109138 5.399987-6.280031 5.609765-6.245238 8.745175-18.412348 10.717086-27.152406 4.471848-8.745175-6.27389-10.747785-18.422581-4.473895-27.15343 3.062755-4.267187 31.974225-40.361243 112.486934-42.533722-3.246951-65.571415-26.913976-104.784508-50.596352-109.74652-10.517541-2.201132-17.260106-12.519128-15.053857-23.035646 1.913583-9.174963 10.009981-15.474436 19.018145-15.474436a18.777669 18.777669 0 0 1 4.018524 0.419555c47.323818 9.910721 78.418001 68.130703 81.572853 149.463081 61.98268 7.861038 85.067444 37.105083 87.797626 40.907688 6.16235 8.579399 4.193509 20.327978-4.243651 26.684756-8.4126 6.401804-20.551058 4.653997-27.118638-3.637854-0.248663-0.317225-2.416026-2.738367-6.553253-5.917779-0.542352 5.664-2.592035 10.92277-5.366217 15.912411 41.591257 9.931187 77.597309 27.989471 107.783818 52.520167 28.686343-39.727817 69.365834-68.555375 121.469516-80.737835-0.308015-2.128477-0.653893-4.248767-0.653893-6.460133 0-2.220574 0.340761-4.351098 0.653893-6.489807h-7.142677c-10.747785 0-19.463284-8.715499-19.463284-19.462261 0-10.747785 8.716522-19.462261 19.463284-19.462261h38.290071c13.81361-43.242873-8.42795-100.249215-27.505447-110.806665-9.404184-5.205559-12.812817-17.041118-7.607259-26.459628 3.549849-6.411013 10.206456-10.033517 17.046235-10.033517 3.193739 0 6.426363 0.785899 9.413394 2.431375 36.016285 19.932981 61.064774 88.106664 49.180096 144.869459h24.99016c10.747785 0 19.464307 8.715499 19.464308 19.46226 0 10.747785-8.716522 19.462261-19.464308 19.462261h-7.142677c0.308015 2.13871 0.653893 4.269233 0.653893 6.489808 0 0.722454-0.176009 1.391696-0.209778 2.103917 128.838344 15.591093 197.3446 124.786051 197.3446 257.412675zM390.210189 129.17629c-7.690146-0.913812-15.991206-1.543146-25.438368-1.543145-9.448186 0-17.745153 0.630357-25.430183 1.543145-13.988596 4.257977-22.090111 11.299347-22.090111 15.86841 0 3.521197 4.779863 8.525164 13.33982 12.592806 11.070126-1.073448 22.441105-1.679245 34.180474-1.679246 11.669784 0 22.890336 0.732687 33.895994 1.795903 8.725732-4.086062 13.623275-9.154497 13.623276-12.709463-0.001023-4.570085-8.096399-11.611455-22.080902-15.86841z m171.713851 178.554652c-10.912537-16.695241-23.602557-32.089859-38.680975-45.36214-38.071084-33.515325-89.936335-54.506405-158.471244-54.506405-181.778066 0-246.544139 147.46661-246.544139 285.468661 0 138.007167 64.766073 285.473777 246.544139 285.473776 130.781602 0 200.76142-76.431763 229.868341-170.653704 5.727445-18.554588 9.951653-37.730323 12.642948-57.227376 2.636037-19.10615 4.037966-38.427194 4.037966-57.592696-0.002047-65.360614-14.787798-132.665509-49.397036-185.600116z m146.710386-177.72475c0 0.38988 0.356111 0.635473 0.424672 1.010003 4.096295-0.282433 8.197706-0.556679 12.406564-0.659009 0.010233-0.1361 0.146333-0.214894 0.146333-0.350994-0.001023-7.148817-12.977569-7.148817-12.977569 0z m19.467377 51.903113c-68.696592 0-114.02394 29.625738-141.767817 72.149227 50.688449 61.113893 76.885088 145.728012 76.885087 239.272526a456.735325 456.735325 0 0 1-8.843412 89.497336c20.913309 8.988722 45.209668 14.310937 73.726142 14.310938 130.996496 0 177.671539-107.246583 177.671539-207.617572 0-100.365872-46.675042-207.612455-177.671539-207.612455zM344.473519 720.704578c-104.102986-18.260899-174.125783-117.377314-162.886811-230.575446 0.952698-9.643638 9.072633-16.841573 18.563798-16.841573 0.621147 0 1.24127 0.033769 1.874697 0.097214 10.263761 1.016143 17.768689 10.166547 16.739243 20.439518-9.423627 95.043656 46.152133 174.990476 132.169205 190.078103 10.165524 1.777483 16.95823 11.470239 15.170514 21.63167-1.778506 10.166547-11.461029 16.919345-21.630646 15.170514z"  horiz-adv-x="1024" />

    
    <glyph glyph-name="dongtai2" unicode="&#59085;" d="M301.511111 123.44888900000001l358.4 116.622222 1.706667 1.706667 112.64 360.675555a16.156444 16.156444 0 0 1-19.342222 19.342223L410.168889 503.466667a1.820444 1.820444 0 0 1-1.706667-1.706667l-132.551111-352.711111a21.447111 21.447111 0 0 1 25.6-25.6z m157.013333 331.093333l253.155556 101.831111a2.275556 2.275556 0 0 0 2.844444-2.844444l-101.831111-262.826667a1.536 1.536 0 0 0-1.706666-1.706666l-274.204445-101.831112a2.275556 2.275556 0 0 0-2.844444 2.844445l122.88 262.826667a2.446222 2.446222 0 0 0 1.706666 1.706666zM512 896a512 512 0 1 1 512-512 512.341333 512.341333 0 0 1-512 512z m0-950.613333A438.727111 438.727111 0 1 0 950.613333 384 438.385778 438.385778 0 0 0 512-54.61333300000001z m17.066667 463.075555a41.870222 41.870222 0 0 1-41.528889-42.097778 40.334222 40.334222 0 0 1 40.391111-40.96 43.349333 43.349333 0 0 1 42.666667 42.666667 40.448 40.448 0 0 1-41.528889 40.391111z m0 0"  horiz-adv-x="1024" />

    
    <glyph glyph-name="liuyan" unicode="&#58933;" d="M980.757621 618.634683c-25.587206 54.244878-62.432784 102.86057-109.001499 144.311844-46.568716 41.451274-100.813593 74.202899-161.1994 97.231384-62.432784 23.54023-128.95952 35.822089-198.044978 35.822089C443.938031 895.488256 377.411294 883.206397 314.466767 859.666167c-60.897551-23.028486-115.142429-55.268366-161.711145-97.231384-46.568716-41.451274-83.414293-90.066967-109.513243-144.311844C16.631684 561.831084 3.326337 502.468766 3.326337 441.05947 3.326337 296.747626 72.923538 165.741129 194.718641 81.815092c0.511744-19.446277 0-125.377311 0-197.021489v-12.793603l198.044977 126.912544c36.845577-7.676162 78.808596-11.770115 117.189405-11.770115 281.971014 0 511.232384 203.674163 511.232384 453.917041-0.511744 61.409295-13.817091 121.283358-40.427786 177.575213zM396.345827 383.744128c-38.892554 0-71.132434 31.728136-71.132434 71.132434 0 38.892554 31.728136 71.132434 71.132434 71.132434 38.892554 0 71.132434-31.728136 71.132434-71.132434S435.750125 383.744128 396.345827 383.744128z m266.106947 0c-38.892554 0-71.132434 31.728136-71.132434 71.132434 0 38.892554 31.728136 71.132434 71.132434 71.132434 38.892554 0 71.132434-31.728136 71.132433-71.132434S701.345327 383.744128 662.452774 383.744128z"  horiz-adv-x="1024" />

    
    <glyph glyph-name="kefu1" unicode="&#58889;" d="M919.43822222 326.65599999999995v29.01333333c2.27555555 132.55111111-36.63644445 244.05333333-113.32266667 323.12888889-36.63644445 37.77422222-80.78222222 66.21866667-131.98222222 86.016-8.192 71.45244445-84.87822222 127.88622222-178.40355555 127.88622223-93.52533333 0-170.89422222-56.32-178.40355556-127.88622223-51.2-19.79733333-95.34577778-48.24177778-131.98222222-86.016-76.68622222-79.07555555-115.712-190.00888889-113.32266667-322.56v-35.49866667c-19.79733333-20.36622222-35.49866667-50.51733333-23.77955555-93.52533333 8.76088889-31.97155555 31.97155555-55.18222222 60.416-65.64977777 14.56355555-9.32977778 31.40266667-14.56355555 49.94844444-14.56355556 36.63644445-160.42666667 168.50488889-269.65333333 341.21955556-269.65333334 172.60088889 0 304.58311111 109.22666667 341.21955555 270.22222223 1.13777778 0 2.27555555-0.56888889 3.52711112-0.56888889 22.64177778 0 43.57688889 8.192 60.416 21.504 21.504 12.17422222 38.34311111 33.10933333 45.28355555 59.27822222 12.17422222 46.64888889-8.192 78.62044445-30.83377778 98.87288889z m-101.14844444-87.72266667c0-21.504-1.70666667-41.87022222-4.66488889-61.55377778-56.32-90.68088889-149.39022222-149.95911111-264.98844444-162.70222222-8.76088889 11.60533333-26.16888889 19.22844445-46.53511112 19.22844445-29.01333333 0-52.33777778-15.70133333-52.33777778-35.49866667 0-19.22844445 23.21066667-35.49866667 52.33777778-35.49866666 26.16888889 0 47.104 12.74311111 51.76888889 29.696 37.20533333 4.096 72.704 13.312 106.38222223 26.73777777 47.67288889 19.22844445 89.54311111 47.67288889 124.928 83.74044445 5.80266667 5.80266667 11.03644445 11.60533333 16.27022222 17.97688888-41.87022222-128.56888889-154.05511111-211.05777778-299.91822222-211.05777777h-1.13777778c-187.73333333 0-318.464 135.39555555-318.464 328.93155555l-0.56888889 18.54577778c0 8.192 1.13777778 30.26488889 2.27555555 51.2 77.93777778 28.44444445 148.25244445 137.216 176.69688889 187.16444444 26.16888889-35.49866667 86.016-103.99288889 177.83466667-139.49155555 34.24711111-13.312 69.17688889-20.36622222 103.424-27.87555555 68.03911111-14.56355555 132.55111111-28.44444445 176.128-85.44711112l1.70666666-1.70666666-1.13777777-2.38933334z m0 0"  horiz-adv-x="1024" />

    
    <glyph glyph-name="main_girl" unicode="&#58908;" d="M1306.57609665 791.419551l-3.555999 3.555998C1170.47116265 925.533486 959.13326565 930.084483 821.03733365 805.499544 682.94240065 930.084483 471.60350365 925.391486 339.05456865 794.975549 203.80363465 661.429615 202.23863565 443.549721 335.78357065 308.156787l3.269998-3.269998L742.81637165-95.17901600000005c42.381979-43.234979 111.784945-43.803979 155.019924-1.422999l1.422 1.422999 403.761802 399.779805c135.393934 133.401935 137.099933 351.424828 3.555999 486.817762z m-132.121936-284.296861c-9.955995 0-18.204991 8.105996-18.204991 18.203991 0 65.562968-53.189974 118.753942-118.752942 118.753942-4.835998 0-9.528995 1.989999-12.941994 5.403997-3.413998 3.412998-5.404997 8.106996-5.404997 12.941994a18.147991 18.147991 0 0 0 18.204991 18.203991c85.757958 0 155.303924-69.544966 155.303924-155.303924 0-9.954995-8.106996-18.203991-18.203991-18.203991z"  horiz-adv-x="1628" />

    
    <glyph glyph-name="rizhi1" unicode="&#59059;" d="M10.95602 383.375995h80.285999a10.956 10.956 0 0 0 10.956-10.977v-12.15a10.956 10.956 0 0 0-10.956-10.914H10.95602A10.956 10.956 0 0 0 0.00002 360.289995v12.108a10.956 10.956 0 0 0 10.956 10.977z m0 340.309997h80.285999a10.956 10.956 0 0 0 10.956-10.956v-12.183a10.956 10.956 0 0 0-10.956-10.955H10.95602A10.956 10.956 0 0 0 0.00002 700.546992V712.729992a10.956 10.956 0 0 0 10.956 10.956z m0-170.207999h80.285999a10.956 10.956 0 0 0 10.956-10.955v-12.150999a10.956 10.956 0 0 0-10.956-10.956H10.95602A10.956 10.956 0 0 0 0.00002 530.371994v12.139999a10.956 10.956 0 0 0 10.956 10.956z m0-340.182996h80.285999a10.956 10.956 0 0 0 10.956-10.956v-12.15a10.956 10.956 0 0 0-10.956-10.957H10.95602A10.956 10.956 0 0 0 0.00002 190.187997v12.14a10.956 10.956 0 0 0 10.956 10.956z m-10.956 0M815.065012 827.979991H755.160013a8.555 8.555 0 0 0-8.524 7.58A68.082999 68.082999 0 0 1 679.036013 895.99999H108.980019a76.605999 76.605999 0 0 1-76.637999-76.616999v-50.826a8.586 8.586 0 0 1 8.586-8.586h50.836999a42.66 42.66 0 0 0 42.69-42.649999v-25.475a34.136 34.136 0 0 0-34.062-34.063H40.97102a8.586 8.586 0 0 1-8.628-8.607v-50.836999a8.586 8.586 0 0 1 8.586-8.586h50.836999a42.66 42.66 0 0 0 42.66-42.66v-16.888999a42.66 42.66 0 0 0-42.66-42.66H40.97102a8.586 8.586 0 0 1-8.586-8.586v-50.825999a8.586 8.586 0 0 1 8.586-8.586h50.836999a42.66 42.66 0 0 0 42.66-42.66v-25.454a34.136 34.136 0 0 0-34.063-34.072999H40.97002a8.586 8.586 0 0 1-8.586-8.587v-50.952a8.586 8.586 0 0 1 8.586-8.586h50.836999a42.66 42.66 0 0 0 42.66-42.659999v-25.245a34.136 34.136 0 0 0-34.063-34.062H40.97002a8.586 8.586 0 0 1-8.628-8.66v-119.034998a76.605999 76.605999 0 0 1 76.605999-76.606h697.529993a76.605999 76.605999 0 0 1 76.605999 76.606V759.959991a68.071999 68.071999 0 0 1-68.019999 68.01z m-295.867997-84.69c8.387 14.175 33.12 20.497 47.639999 12.508l81.24-45.499999c14.53-8.22 21.209-32.165 12.863-46.34L404.230016 230.215997a8.586 8.586 0 0 0-11.585-3.145l-126.749999 70.933999a8.586 8.586 0 0 0-3.146 11.868zM365.010016 187.106997l-103.067999-38.298a8.586 8.586 0 0 0-11.532999 7.339l-8.387 100.561999a8.586 8.586 0 0 0 12.749 8.209l111.422998-62.263999a8.586 8.586 0 0 0-1.184-15.548zM815.065012 45.299998c0-37.522-2.097-68.009999-68.009999-68.009999H134.458019a68.145999 68.145999 0 0 0-67.297 58.112999 8.618 8.618 0 0 0 8.503 9.897h594.670994a76.605999 76.605999 0 0 1 76.606 76.606V785.173991a8.607 8.607 0 0 0 8.702 8.597c33.423-0.346 59.307999-4.99 59.307999-67.988999V45.299998z m0 0"  horiz-adv-x="1056" />

    
    <glyph glyph-name="anquan" unicode="&#58909;" d="M845.824 675.84c-10.24 9.216-23.04 13.824-36.352 13.824h-4.096c-1.024 0-9.216-1.024-22.528-1.024-22.528 0-65.024 1.536-105.984 11.776-52.736 12.288-113.664 70.656-131.584 81.92-8.704 5.632-19.456 8.704-29.184 8.704-10.24 0-19.968-3.072-29.184-8.704-2.56-1.536-66.048-67.584-128-81.92-40.96-10.24-84.992-11.776-107.008-11.776-13.824 0-22.528 1.024-23.04 1.024h-3.072c-13.824 0-26.112-4.608-36.352-13.824-10.752-9.216-16.896-23.04-16.896-37.376v-128.512c0-474.112 321.536-535.04 334.336-537.6 3.072-1.024 6.144-1.024 9.216-1.024 3.072 0 6.144 0 9.216 1.024 13.824 2.56 336.896 63.488 336.896 537.6V638.464c0 13.824-6.144 27.648-16.384 37.376z m-444.928-506.88l106.496 166.912-136.704 43.52L625.664 599.04l-95.232-185.856 143.36-41.984L400.896 168.96z"  horiz-adv-x="1024" />

    
    <glyph glyph-name="jiaoyouzhenghun" unicode="&#58910;" d="M472.54528 517.52448l58.20416 58.32192-228.27008 228.27008-228.3008-228.27008 58.2912-58.32192S207.13472 592.18944 261.2736 646.35392v-317.86496c-80.41984-18.67776-140.45184-90.38336-140.45184-176.50176 0-100.352 81.30048-181.6832 181.6576-181.6832 100.29568 0 181.73952 81.33632 181.73952 181.6832 0 86.11328-60.14464 157.81888-140.50816 176.50176V646.35392a241043.84 241043.84 0 0 1 128.83456-128.82944z m477.27616 91.18208c0 100.40832-81.3312 181.62688-181.60128 181.62688-100.3776 0-181.7088-81.21856-181.7088-181.62688 0-86.11328 60.0832-157.81888 140.45184-176.50176v-182.25664h-138.45504v-82.46784h138.45504V-29.696h82.46784v197.17632h138.3424v82.46784h-138.3424V432.2048c80.32768 18.67776 140.3904 90.38336 140.3904 176.50176z"  horiz-adv-x="1024" />

    
    <glyph glyph-name="quanzi" unicode="&#58968;" d="M23.368906 454.770675a30.165685 30.165685 0 0 1 5.822747-0.596974 29.117731 29.117731 0 0 1 28.506757 23.293984A462.370844 462.370844 0 0 0 418.507681 838.247958 29.117731 29.117731 0 0 1 406.860189 895.30347 522.440225 522.440225 0 0 1 0.672896 489.114178a29.117731 29.117731 0 0 1 22.69701-34.343503zM418.507681-70.27543600000001a459.051988 459.051988 0 0 0-165.750774 69.750959 467.175634 467.175634 0 0 0-68.644008 56.633531A461.511881 461.511881 0 0 0 57.727409 290.50483599999995 29.117731 29.117731 0 1 1 0.670896 278.857344a522.338229 522.338229 0 0 1 406.189293-406.189293 29.117731 29.117731 0 0 1 11.647492 57.056513z m582.104624 383.477282a29.117731 29.117731 0 0 1-34.358502-22.69701 462.370844 462.370844 0 0 0-360.780273-360.780272 29.117731 29.117731 0 1 1 11.646493-57.055513 522.498222 522.498222 0 0 1 406.189292 406.189293 29.117731 29.117731 0 0 1-22.69701 34.343502zM605.47053 838.248958A462.370844 462.370844 0 0 0 966.250803 477.466685a29.117731 29.117731 0 0 1 28.491758-23.293984 29.947694 29.947694 0 0 1 5.822746 0.596974 29.117731 29.117731 0 0 1 22.69801 34.373501A522.498222 522.498222 0 0 1 617.074025 895.333469a29.117731 29.117731 0 1 1-11.647493-57.055513z m225.602166-454.263197a319.113089 319.113089 0 1 1-93.466926-225.660163 316.944183 316.944183 0 0 1 93.466926 225.660163zM511.988606 238.54410099999996a145.44166 145.44166 0 1 0 145.441659 145.44166 145.587653 145.587653 0 0 0-145.441659-145.44166z"  horiz-adv-x="1024" />

    
    <glyph glyph-name="iconfont7" unicode="&#58895;" d="M914.817 358.689h-805.635c-13.482 0-24.413 11.066-24.413 24.559s10.931 24.559 24.413 24.559h805.635c13.482 0 24.413-11.066 24.413-24.559s-10.931-24.559-24.413-24.559zM536.441 786.064v-805.635c0-13.482-11.066-24.413-24.559-24.413s-24.559 10.931-24.559 24.413v805.635c0 13.482 11.066 24.413 24.559 24.413s24.559-10.931 24.559-24.413z"  horiz-adv-x="1024" />

    
    <glyph glyph-name="jiaobiao" unicode="&#58947;" d="M255.317333-43.690667h853.333334v853.333334l-853.333334-853.333334z m521.728 157.696l-125.44 125.44 32.426667 32.426667 88.917333-88.917333L946.858667 356.693333l32.426666-32.426666-202.24-210.261334z m0 0"  horiz-adv-x="1365" />

    
    <glyph glyph-name="lijidenglu" unicode="&#58890;" d="M877.49973333 224.39253333c-39.3216 18.6368-72.84053333 26.07786667-101.44426666 27.98933334-9.96693333 31.19786667 26.76053333 84.3776 43.008 105.472 105.8816 113.4592 65.87733333 453.8368-160.63146667 422.22933333C646.28053333 778.37653333 634.81173333 774.48533333 623.75253333 769.6384c68.8128-111.0016 60.55253333-292.4544-13.7216-372.05333333C600.6784 385.4336 585.25013333 363.58826667000005 574.19093333 340.5824c7.64586667-20.48 12.01493333-42.87146667 14.06293334-61.37173333 25.32693333-4.3008 53.72586667-12.56106667 85.67466666-27.71626667 144.31573333-68.74453333 155.92106667-314.29973333 155.92106667-314.29973333l189.98613333 0C1019.83573333-62.94186666999997 1009.32266667 161.51893332999998 877.49973333 224.39253333zM596.65066667 251.49440000000004c-43.07626667 20.54826667-79.80373333 28.672-111.0016 30.65173333-10.8544 34.13333333 29.2864 92.3648 46.96746666 115.43893334C641.70666667 514.38933333 609.21173333 851.01226667 398.40426667 861.32053333c0 0 0 0-0.06826667 0C385.2288 861.93493333 371.5072 861.5936 356.9664 859.5456 185.41226667 835.5840000000001 91.47733333 508.38186667 256.2048 399.42826667 277.0944 362.22293333000005 281.8048 305.49333333000004 282.69226667 282.96533333c-33.72373333 0-75.22986667-7.3728-124.85973334-31.47093333-142.336-68.74453333-153.73653333-314.29973333-153.73653333-314.29973333l748.544 0C752.50346667-62.94186666999997 740.9664 182.74986666999996 596.65066667 251.49440000000004zM375.73973333 258.66240000000005C374.92053333 259.2768 373.41866667 260.02773333000005 372.46293333 260.50559999999996 374.30613333 260.23253333 376.14933333 260.23253333 378.0608 260.02773333000005 377.37813333 259.61813333 376.28586667 259.072 375.73973333 258.66240000000005z"  horiz-adv-x="1024" />

    
    <glyph glyph-name="wenben" unicode="&#58952;" d="M712.38656 888.6272l0.3584-0.36864L927.39584 663.8592c0.11264-0.1024 0.22528-0.22528 0.32768-0.34816l6.63552-6.93248v-707.66592c0-41.9328-34.11968-76.04224-76.06272-76.04224H163.62496c-41.94304 0-76.06272 34.11968-76.06272 76.04224V819.9168C87.552 861.87008 121.68192 896 163.62496 896h541.696l7.0656-7.3728zM431.75936 102.79936V51.2H579.072v51.59936h-46.7968v353.9968h119.99232v-70.79936h61.50144V505.99936h-405.6064v-120.00256H369.664V456.8064h103.80288v-354.00704h-41.70752z"  horiz-adv-x="1024" />

    
    <glyph glyph-name="huodong" unicode="&#58894;" d="M1.08483 550.033974c0 19.720946 6.63747 36.378443 20.040055 50.036315 13.402584 13.59405 29.485686 20.422986 48.313125 20.422986h68.353181V301.256479H69.43801c-18.82744 0-34.910541 6.828936-48.313125 20.422986a68.608468 68.608468 0 0 0-20.040055 49.972493V550.033974zM760.373147 843.167641c31.145053 31.081231 59.354302 48.12166 84.627747 51.121287 25.337267 3.063448 47.738729-3.956953 67.268209-20.997383 19.465658-17.040429 36.186978-42.058586 49.908672-74.99065 13.721694-32.932065 24.954336-69.693439 33.570283-110.220302 8.743591-40.526862 15.253417-82.904558 19.52948-127.26073 4.403706-44.29235 6.509827-86.47858 6.509826-126.622511s-2.680517-80.287863-8.105372-120.431794c-5.424856-40.143931-13.402584-77.862633-23.869365-113.092284a501.703409 501.703409 0 0 0-36.889018-92.541654c-14.104625-26.549881-29.804795-46.207005-47.164332-59.099015a68.927577 68.927577 0 0 0-55.907924-13.657872c-19.848589 3.82931-40.654506 18.572153-62.353928 44.356172-20.997382 25.720198-49.334275 47.100511-85.138322 64.14094a720.739931 720.739931 0 0 1-117.176881 43.207379 1240.696384 1240.696384 0 0 1-128.537166 28.400715c-43.398845 7.211867-83.159845 13.59405-119.283001 19.274193a1574.612201 1574.612201 0 0 0-90.563178 16.529854c-24.252296 5.297212-37.846345 11.679395-40.718328 19.274193V626.173418c2.871982 10.594424 14.29609 19.338015 34.14468 26.103129a596.351184 596.351184 0 0 0 75.947978 19.338014c30.6983 6.063074 65.481198 12.700544 104.157227 19.912411a1031.233137 1031.233137 0 0 1 118.19803 29.485686 770.074206 770.074206 0 0 1 117.751277 47.738729A418.288277 418.288277 0 0 1 760.373147 843.167641zM369.911188 146.743827c3.574023-9.126522 7.913907-18.955084 13.019654-29.549507 4.276063-9.828562 10.083849-21.188848 17.359537-34.080858 7.211867-12.89201 15.891636-26.868991 25.975485-42.058586 12.317613-18.189222 24.76287-37.271949 37.463415-57.375825 12.636722-20.040055 22.209997-38.229276 28.719824-54.503844 6.509827-16.274567 8.488303-29.740973 5.999252-40.335396-2.552873-10.594424-12.828188-15.891636-30.953588-15.891636h-61.779532c-14.487556 0-27.89014 2.808161-40.143931 8.488303a117.432168 117.432168 0 0 0-35.293473 26.166951 320.194123 320.194123 0 0 0-34.719075 44.866747 979.218345 979.218345 0 0 0-38.484564 64.715336c-16.593676 28.783646-28.209249 53.993269-34.719076 75.565047a402.396641 402.396641 0 0 0-13.019653 53.993268 108.497112 108.497112 0 0 0 0 43.143558c5.807787-0.765862 12.636722-2.233764 20.614451-4.53135l23.869365-5.680143c9.381809-2.297586 20.23152-4.53135 32.549133-6.828936 12.317613-2.999626 23.294968-5.871608 33.12353-8.488303 9.700918-2.680517 18.572153-5.488677 26.48606-8.552126 8.679769-2.999626 16.657498-6.063074 23.933186-9.0627z"  horiz-adv-x="1024" />

    
    <glyph glyph-name="huati" unicode="&#58911;" d="M512 896C228.894118 896 0 667.105882 0 384s228.894118-512 512-512 512 228.894118 512 512S795.105882 896 512 896z m313.223529-825.223529c-84.329412-84.329412-194.258824-129.505882-313.223529-129.505883s-228.894118 46.682353-313.223529 129.505883C115.952941 155.105882 69.270588 265.035294 69.270588 384s46.682353 228.894118 129.505883 313.223529C283.105882 780.047059 393.035294 826.729412 512 826.729412s228.894118-46.682353 313.223529-129.505883c84.329412-84.329412 129.505882-194.258824 129.505883-313.223529s-46.682353-228.894118-129.505883-313.223529zM766.494118 454.776471c19.576471 0 34.635294 15.058824 34.635294 34.635294s-15.058824 34.635294-34.635294 34.635294h-52.705883l42.164706 100.894117c7.529412 18.070588-1.505882 37.647059-18.070588 45.176471-18.070588 7.529412-37.647059-1.505882-45.176471-18.070588l-52.705882-126.494118h-137.035294l42.164706 100.894118c7.529412 18.070588-1.505882 37.647059-18.070588 45.17647-18.070588 7.529412-37.647059-1.505882-45.176471-18.070588l-52.705882-126.494117H257.505882c-19.576471 0-34.635294-15.058824-34.635294-34.635295s15.058824-34.635294 34.635294-34.635294h140.047059l-58.729412-143.058823h-81.317647c-19.576471 0-34.635294-15.058824-34.635294-34.635294 0-19.576471 15.058824-34.635294 34.635294-34.635294h52.705883L268.047059 143.058824c-7.529412-18.070588 1.505882-37.647059 18.070588-45.176471 4.517647-1.505882 9.035294-3.011765 13.552941-3.011765 13.552941 0 27.105882 7.529412 31.62353 21.082353l52.705882 126.494118h137.035294L480.376471 143.058824c-7.529412-18.070588 1.505882-37.647059 18.070588-45.176471 4.517647-1.505882 9.035294-3.011765 13.552941-3.011765 13.552941 0 27.105882 7.529412 31.623529 21.082353l52.705883 126.494118h168.658823c19.576471 0 34.635294 15.058824 34.635294 34.635294 0 19.576471-15.058824 34.635294-34.635294 34.635294h-140.047059l58.729412 143.058824h82.82353z m-215.341177-141.552942h-137.035294l58.729412 143.058824h137.035294l-58.729412-143.058824z"  horiz-adv-x="1024" />

    
    <glyph glyph-name="haibao-" unicode="&#58961;" d="M782.4 709h-10.1c-4.7 27.3-25.1 49.1-51.6 56.1V802.3c0 13.8-11.1 24.9-24.9 24.9-13.7 0-24.8-11.2-24.8-24.9v-37.1c-26.5-7-46.8-28.8-51.6-56.1H402.8c-4.7 27.3-25.1 49.1-51.6 56.1V802.3c0 13.8-11.1 24.9-24.9 24.9S301.5 816 301.5 802.3v-37.1c-26.5-7-46.8-28.8-51.6-56.1h-10.1c-64.3 0-116.6-52.3-116.6-116.6v-535c0-64.3 52.3-116.6 116.6-116.6h542.6c64.3 0 116.6 52.3 116.6 116.6v535c0 64.2-52.3 116.5-116.6 116.5zM668 697c0 11.6 9.4 21 21 21h13.8c11.6 0 21-9.4 21-21v-13.8c0-11.6-9.4-21-21-21H689c-11.6 0-21 9.4-21 21V697z m-369.5 0c0 11.6 9.4 21 21 21h13.7c11.6 0 21-9.4 21-21v-13.8c0-11.6-9.4-21-21-21h-13.7c-11.6 0-21 9.4-21 21V697z m550.7-639.6c0-36.8-30-66.8-66.8-66.8H239.8c-36.8 0-66.8 30-66.8 66.8v535c0 36.8 30 66.8 66.8 66.8h13.3c9.9-27.2 35.8-46.8 66.3-46.8h13.7c30.6 0 56.5 19.6 66.3 46.8h223.1c9.9-27.2 35.8-46.8 66.3-46.8h13.8c31.3 0 57.6 20.5 66.9 48.7v-1.9h12.8c36.8 0 66.8-30 66.8-66.8v-535zM369.8 314.5c-4.8 0-9.1 0.8-13.6 2.4-13.2 5.9-21 17.9-21 32.1v39.2c-6.6 0.7-11.5 6.1-11.5 12.9 0 7.1 5 12.6 11.5 13.3v35.7c0 14 7.9 26.3 20.7 32 5.2 1.9 9.5 2.8 13.9 2.8h77c4.5 0 8.9-0.9 13.4-2.7 8.7-4 14.8-10.2 18.5-18.4 1.9-4.7 2.8-9.3 2.8-13.7v-35.7c6.5-0.7 11.5-6.2 11.5-12.9 0-7.2-5-12.7-11.5-13.4V349c0-5.4-1.3-9.8-2.7-13.3-4-8.5-10.3-14.8-18.4-18.6-4.4-1.8-8.8-2.6-13.7-2.6h-76.9z m77 26.1c2.6 0 4.5 0.8 6.2 2.5 1.5 1.5 2.2 3.4 2.2 5.9v39.1h-50.3l25.4-25.1c2.5-2.5 3.9-5.7 3.9-9.1 0.1-3.5-1.3-6.8-3.9-9.4-2.2-2.3-5.1-3.8-8.2-4h24.7z m-85.2 8.4c0-2.5 0.7-4.4 2.2-5.9 1.6-1.8 3.4-2.5 5.9-2.5H420c-3.1 0.2-5.9 1.6-8.1 3.8l-25.1 24.8c-2.5 2.5-3.8 5.8-3.8 9.2 0 3.5 1.4 6.7 3.8 9.2l0.5 0.5h-25.6V349z m93.6 65.6v35.6c0 2.6-0.6 4.2-2.4 6.1-1.6 1.5-3.7 2.3-6 2.3h-45.3c1.3-0.6 2.6-1.5 3.7-2.6l25.1-25.4c2.4-2.4 3.8-5.7 3.8-9.1 0-2.5-0.7-4.9-2.1-7h23.2z m-45.6 0l-22.8 23c-2.4 2.2-3.8 5.5-3.8 8.9 0 3.5 1.5 6.8 4 9.1 1.2 1.3 2.5 2.3 3.9 2.9h-21c-2.3 0-4.3-0.8-5.9-2.5-1.6-1.8-2.2-3.4-2.2-5.9v-35.6h47.8z m-125.3-97.1c-1.9 0-3.7 0.4-5.5 1.2-7.1 3.4-9.7 10.7-7.1 17.3l27.5 59.6c2.3 4.6 7 7.5 12 7.5 1.6 0 3.1-0.3 4.6-0.9 4-1.6 6.6-4.3 7.9-7.7 1.2-3.3 1.1-7-0.4-10.1L295.9 325c-2-4.5-6.5-7.5-11.6-7.5z m10.9 96.2c-7.3 0-13 5.7-13 13v28.9c0 7.3 5.7 13 13 13 7.6 0 13.4-5.8 13.4-13v-28.9c0-7.1-5.8-13-13-13h-0.4z m0 65.3c-7.3 0-13 5.7-13 13v28.6c0 7.3 5.7 13 13 13 7.6 0 13.4-5.8 13.4-13V492c0-7.1-5.8-13-13-13h-0.4z m52.5 9.2c-4.1 0-7.8 1.9-10.3 5.1-2.5 2.9-3.4 7-2.3 11.3l5.9 20.3c1.2 5.4 6.2 9.3 12 9.3l4.1-0.7c7-1.8 11-8.8 9.4-15.7l-0.9-3.5H472c7.2 0 13-5.8 13-13 0-7.4-5.8-13.2-13-13.2H347.7zM288.6 326c-1.7-3.8-6.2-5.7-10.2-3.8l-0.7 0.2c-3.8 1.9-5.5 6.4-3.8 10.5l27.8 60.1c1.9 3.8 6.4 5.5 10 4l0.7-0.2c4-1.7 5.9-6.6 4-10.5L288.6 326zM301 492.8c0-4.3-3.6-7.8-7.8-7.8h-0.5c-4.5 0-7.8 3.6-7.8 7.8v29c0 4.3 3.3 7.8 7.8 7.8h0.5c4.3 0 7.8-3.6 7.8-7.8v-29z m0-66.1c0-4.3-3.6-7.8-7.8-7.8h-0.5c-4.5 0-7.8 3.6-7.8 7.8v29.2c0 4.3 3.3 7.8 7.8 7.8h0.5c4.3 0 7.8-3.6 7.8-7.8v-29.2z m67.2-108.3c-4.3 0-8.1 0.7-11.9 2.1-11.2 5-17.8 15.2-17.8 27.6V393h-3.8c-4.5 0-7.8 3.6-7.8 7.8v0.5c0 4 3.3 7.8 7.8 7.8h3.8v41.3c0 12.1 6.6 22.6 17.8 27.6 3.8 1.4 7.6 2.4 11.9 2.4h77.9c4.3 0 8.1-0.9 11.6-2.4 7.1-3.3 12.6-8.6 15.9-15.9 1.4-3.6 2.4-7.6 2.4-11.6v-41.3h3.8c4.5 0 7.8-3.8 7.8-7.8v-0.5c0-4.3-3.3-7.8-7.8-7.8H476v-44.9c0-4.3-1-7.8-2.4-11.6-3.3-7.1-8.8-12.6-15.9-15.9-3.6-1.4-7.4-2.1-11.6-2.1h-77.9z m-10.9 191.7h114.5c4.3 0 7.8-3.6 7.8-7.8v-0.2c0-4.3-3.6-7.8-7.8-7.8H345.9c-2.6 0-4.8 1.2-6.2 3.1-1.7 1.9-2.1 4.3-1.4 6.9l5.9 20.4c1 4.3 5.5 6.6 9.5 5.2h0.7c4-1.2 6.4-5.5 5.5-9.7l-2.6-10.1z m102.6-59.6c0 4-1.2 6.9-3.8 9.7-2.8 2.6-6.2 4-10 4h-77.9c-3.8 0-7.1-1.4-9.7-4-2.6-2.8-3.8-5.7-3.8-9.7v-41.3H460v41.3z m-13.7-116.2c3.8 0 7.1 1.2 10 4 2.6 2.6 3.8 5.9 3.8 9.7v45H354.7v-44.9c0-3.8 1.2-7.1 3.8-9.7 2.6-2.9 5.9-4 9.7-4h78zM425.7 427c3.1-3.1 3.1-7.8 0-10.9l-0.2-0.2c-2.8-3.1-7.8-3.1-10.9 0l-25.4 25.7c-3.1 2.8-3.1 7.8 0 10.7l0.2 0.5c3.1 3.1 7.8 3.1 10.9 0l25.4-25.8z m0-68.5c3.1-3.1 3.3-7.8 0-11.2l-0.2-0.2c-2.8-3.1-7.8-3.1-10.9 0l-25.4 25.2c-3.1 3.1-3.1 8.1 0 11.2l0.2 0.2c3.1 3.1 7.8 3.1 10.9 0l25.4-25.2zM524.4 316.6c-7.3 0-13 5.7-13 13 0 7.6 5.6 13.2 13 13.2h4.5c2.1 0 4.2 0.9 6.1 2.6 1.6 1.5 2.3 3.3 2.3 5.5v36.5l-11.5-6.3c-1.9-1.1-4.1-1.6-6.3-1.6-4.6 0-8.9 2.4-11.2 6.3-1.7 3.7-2 6.7-1.3 10 0.9 3.6 3.3 6.5 6.5 8.1l23.9 13.2v64.7h-17.3c-7.2 0-13 5.8-13 13 0 7.5 5.9 13.4 13 13.4h17.3v18c0 7 5.7 12.7 12.7 12.7 7.5 0 13.4-5.8 13.4-12.7v-18h5.8c7 0 13-5.9 13-13 0-7.6-5.8-13.4-13-13.4h-5.8v-50.3l5.2 2.8c2 1 4.1 1.5 6.2 1.5 4.7 0 9.1-2.5 11.4-6.6 2-3.1 2.5-6.5 1.4-10.1-1.5-3.9-3.7-6.4-6.9-7.7l-17.3-9.6v-50.9c0-4.9-0.9-9.3-2.8-13.6-5.6-12.8-17.7-20.7-31.8-20.7h-4.5z m78.4 0.5c-6.9 0-12.7 5.9-12.7 13V507c0 3.9 0.7 7.5 2.2 11.5 5.3 11.7 15.8 18.8 27.6 18.8h69.9c16.7 0 30.3-13.6 30.3-30.3v-27.7c0-16.7-13.6-30.3-30.3-30.3h-39c-6.9 0-12.7 5.9-12.7 13 0 7.5 5.7 13.2 12.7 13.2h39c1.2 0 2.1 0.4 3.1 1.3 0.5 0.6 0.8 1.4 0.8 2.9V507c0 1.9-0.6 2.5-0.8 2.6-0.9 0.9-1.6 1.3-3.1 1.3h-69.9l-2.9-1.3c-0.2-0.2-0.8-0.7-0.8-2.6v-58.1h90.1c4.4 0 8.5-2.2 10.9-6 2.4-3.7 2.7-8.4 0.9-12.5-9.2-20.7-20-39.7-32.1-56.6l33.7-31.8c5.1-4.7 5.3-12.9 0.5-18.1-2.4-2.8-5.5-4.3-9.2-4.3h-0.2c-3.5 0-6.5 1.1-8.8 3.1l-32.5 30.8c-10-11.3-21.1-21.7-33-31.1-2.3-1.9-5.3-3-8.3-3-4.1 0-7.8 1.9-10.1 5.2-0.8 1.2-1.5 2.4-2 3.7-0.9-6.3-6.3-11.2-12.8-11.2h-0.5z m13.4 20.5c0.9 2.2 2.4 4.1 4.4 5.5 11.1 8.5 21.3 17.9 30.4 27.9l-34.7 33v-66.4z m51.1 54c6.7 9.6 12.9 19.8 18.6 30.8h-51.2l32.6-30.8zM520.2 487.8c-4.3 0-7.8 3.6-7.8 7.8v0.5c0 4 3.6 7.8 7.8 7.8H543v23.5c0 4 3.3 7.6 7.6 7.6h0.5c4.3 0 7.8-3.6 7.8-7.6v-23.5h11.2c4.3 0 7.8-3.8 7.8-7.8v-0.5c0-4.3-3.6-7.8-7.8-7.8h-11.2v-65.1l13.1 7.1c3.8 1.9 8.6 0.7 10.7-3.1 1.2-1.9 1.7-3.8 1-6.2-0.7-1.9-1.9-3.6-4-4.5L559 404.6V350c0-4-0.7-7.8-2.4-11.6-4.8-10.9-15.2-17.8-27.3-17.8h-4.5c-4.5 0-7.8 3.6-7.8 7.8v0.2c0 4.5 3.3 7.8 7.8 7.8h4.5c3.6 0 6.9 1.4 9.7 4 2.6 2.6 4 5.7 4 9.5v45.9l-19.5-10.7c-3.8-2.1-8.6-0.7-10.7 2.8-0.9 2.1-1.2 4-0.7 6.4 0.5 1.9 1.9 3.6 3.8 4.5l27.1 15v73.9h-22.8z m76.3 20.2c0 3.6 0.7 6.6 1.9 9.7 4.3 9.5 12.8 15.7 23 15.7h70.8c14 0 25.4-11.4 25.4-25.4v-28c0-13.8-11.4-25.4-25.4-25.4h-39.4c-4 0-7.6 3.6-7.6 7.8v0.5c0 4.3 3.6 7.6 7.6 7.6h39.4c2.6 0 4.7 1 6.6 2.6 1.9 2.1 2.6 4.3 2.6 6.9v28c0 2.6-0.7 5-2.6 6.6-1.9 1.9-4 2.6-6.6 2.6h-70.8c-2.6 0-4.8-0.7-6.4-2.6-1.9-1.7-2.6-4-2.6-6.6v-64.1h96.5c5.7 0 9.5-5.9 7.1-11.2-9.5-21.4-20.9-41.6-34.7-60.1l37.5-35.4c3.1-2.8 3.1-7.8 0.2-10.9-1.4-1.7-3.1-2.6-5.5-2.6-2.1-0.2-4.3 0.7-5.7 1.9l-36.6 34.7c-10.9-12.8-23-24.5-36.4-34.9-3.6-2.9-8.6-2.4-11.2 1.2l-0.2 0.5c-2.6 3.6-1.9 8.3 1.7 10.9 13.1 10 24.7 20.9 34.9 32.8L612.4 416v-87.2c0-4.3-3.6-7.8-7.8-7.8h-0.5c-4 0-7.6 3.6-7.6 7.8V508z m100.3-80.3h-73.7l47-44.4c10 13.5 18.8 28.2 26.7 44.4zM214.9-34.3h-46.2c54.2 131 110.9 196.4 170.2 196.4 85 0 85.1-36.8 148.9-36.8 85.1 0 42.5 159.6 148.9 159.6 70.9 0 141.8-106.4 212.7-319.2h-44.9c-63.4 186-124.8 276.6-167.8 276.6-20.7 0-28.2-9.1-42.1-50.7-0.7-2.2-1.5-4.5-3-9.1-22.8-69.1-45-99.8-103.8-99.8-30.7 0-51 5.8-77.5 18.9l-7.8 3.9c-20.9 10.3-34.7 14-63.5 14-34.5 0.1-78.4-48.7-124.1-153.8z m0 0"  horiz-adv-x="1024" />

    
    <glyph glyph-name="wenzi" unicode="&#58986;" d="M512 782.226286V-14.262857h-113.773714V782.262857H341.321143A341.467429 341.467429 0 0 1 19.419429 554.678857H0V896h910.226286v-341.321143h-19.419429a341.467429 341.467429 0 0 1-321.901714 227.547429H512zM398.226286-14.262857H512L625.773714-128H284.452571l113.737143 113.773714z m398.226285 227.547428h113.737143L1024-128h-341.321143l113.737143 341.321143z m93.952-170.642285l-37.083428 113.737143-35.986286-113.737143h73.069714z m15.616-56.905143h-102.656v1.316571L767.524571-128h179.382858l-40.886858 113.773714z"  horiz-adv-x="1024" />

    
    <glyph glyph-name="yanjing" unicode="&#59206;" d="M1562.642 382.241c0-149.673-320.565-468.964-777.384-468.964-445.19 0-777.381 314.04-777.381 468.964 0 154.908 333.625 468.467 777.381 468.467 460.41 0 777.488-313.559 777.384-468.467zM785.944 765.166c-206.894 0-374.617-171.561-374.617-383.179 0-211.615 167.72-383.176 374.617-383.176 206.956 0 374.683 171.56 374.683 383.176 0 211.618-167.727 383.18-374.683 383.18zM785.258 626.62c-131.755 0-238.568-109.232-238.568-243.99 0-134.745 106.813-243.994 238.568-243.994 131.758 0 238.525 109.25 238.525 243.993 0.002 134.759-106.767 243.99-238.525 243.99z"  horiz-adv-x="1575" />

    
    <glyph glyph-name="gengduo" unicode="&#58925;" d="M148.2 495.5c-46.4 0-84-40.1-84-89.6s37.6-89.6 84-89.6 84.1 40.1 84.1 89.6-37.7 89.6-84.1 89.6M512.5 495.5c-46.4 0-84.1-40.1-84.1-89.6s37.6-89.6 84.1-89.6c46.4 0 84 40.1 84 89.6s-37.6 89.6-84 89.6M876.3 495.5c-46.4 0-84.1-40.1-84.1-89.6s37.6-89.6 84.1-89.6c46.4 0 84 40.1 84 89.6s-37.6 89.6-84 89.6"  horiz-adv-x="1024" />

    
    <glyph glyph-name="anniu" unicode="&#59086;" d="M1327.542857 822.857143C1561.6 822.857143 1755.428571 625.371429 1755.428571 384s-193.828571-438.857143-431.542857-438.857143H504.685714C266.971429-54.857143 73.142857 142.628571 73.142857 384S266.971429 822.857143 504.685714 822.857143h822.857143m0 73.142857H504.685714C226.742857 896 0 665.6 0 384s226.742857-512 504.685714-512h822.857143C1601.828571-128 1828.571429 102.4 1828.571429 384S1601.828571 896 1327.542857 896zM713.142857 394.971429c29.257143 14.628571 40.228571 36.571429 40.228572 65.828571-3.657143 47.542857-29.257143 76.8-84.114286 76.8H585.142857c-21.942857 0-32.914286-10.971429-32.914286-32.914286v-252.342857c0-21.942857 10.971429-32.914286 32.914286-32.914286h91.428572c65.828571 3.657143 98.742857 36.571429 102.4 98.742858-3.657143 43.885714-25.6 69.485714-65.828572 76.8z m-95.085714 87.771428h32.914286c21.942857 0 36.571429-10.971429 36.571428-32.914286 0-21.942857-14.628571-32.914286-36.571428-36.571428h-32.914286v69.485714z m51.2-201.142857h-51.2v73.142857h47.542857c29.257143 0 43.885714-10.971429 47.542857-36.571428-3.657143-21.942857-18.285714-32.914286-43.885714-36.571429zM969.142857 541.257143H804.571429c-14.628571 0-25.6-10.971429-25.6-29.257143 0-21.942857 10.971429-32.914286 25.6-32.914286h47.542857v-226.742857c0-21.942857 10.971429-32.914286 32.914285-32.914286 21.942857 0 32.914286 10.971429 32.914286 32.914286v226.742857h47.542857c18.285714 0 29.257143 10.971429 29.257143 32.914286 3.657143 18.285714-7.314286 29.257143-25.6 29.257143zM1243.428571 544.914286c-21.942857 0-32.914286-14.628571-32.914285-36.571429v-168.228571L1067.885714 530.285714c-7.314286 10.971429-14.628571 14.628571-29.257143 14.628572-21.942857 0-32.914286-14.628571-32.914285-36.571429v-256c0-21.942857 10.971429-32.914286 32.914285-32.914286s32.914286 10.971429 32.914286 32.914286V420.571429l138.971429-186.514286c7.314286-7.314286 14.628571-10.971429 29.257143-10.971429 21.942857 0 32.914286 10.971429 32.914285 32.914286v256c0 18.285714-10.971429 32.914286-29.257143 32.914286z"  horiz-adv-x="1828" />

    
    <glyph glyph-name="xingzhuang" unicode="&#58901;" d="M996.352 312.1152L823.1936 588.288V722.7392H173.2608v-823.1936H102.4a102.4 102.4 0 0 0-102.4 102.4V793.6a102.4 102.4 0 0 0 102.4 102.4h791.552a102.4 102.4 0 0 0 102.4-102.4v-481.4848zM764.416 574.0544l324.1984-517.5296a102.4 102.4 0 0 0-86.7328-156.672H353.28a102.4 102.4 0 0 0-86.7328 156.672l324.096 517.5296a102.4 102.4 0 0 0 173.568 0z m-88.6784-154.624l-220.7744-352.256h441.344l-220.5696 352.256z"  horiz-adv-x="1126" />

    
    <glyph glyph-name="images" unicode="&#58893;" d="M753.664 452.608c39.936-0.512 76.288 19.968 96.256 53.76 19.968 34.304 19.968 76.288 0 110.592-19.968 34.304-56.32 54.272-96.256 53.76-59.392-1.024-107.008-49.664-107.008-109.056-0.512-59.392 47.104-108.032 107.008-109.056zM889.344 893.44H134.656C61.952 893.44 2.56 827.392 2.56 747.52v-727.04c0-79.872 58.88-145.92 132.096-145.92h755.2c72.192 0 132.096 65.024 132.096 145.92V747.52C1021.44 827.392 962.048 893.44 889.344 893.44z m-768-72.704h768.512c36.352 0 65.536-32.768 65.536-72.704v-727.04l-221.696 279.04c-7.68 10.752-18.944 16.896-30.72 17.408-12.288 0-20.992-6.656-30.72-15.872l-44.544-44.032c-9.216-7.68-16.896-12.8-27.648-12.8-9.728 0-18.944 4.096-26.112 11.264-3.584 4.096-7.168 7.168-10.24 11.264L436.736 429.056c-10.24 13.312-24.576 20.992-39.936 20.992-15.872 0-30.72-9.216-40.448-22.016l-288.256-406.016V748.032c0 30.208 20.992 65.536 53.248 72.704z"  horiz-adv-x="1280" />

    
    <glyph glyph-name="qingganfenxi-" unicode="&#58897;" d="M844.8 755.2c-89.6 38.4-185.6 32-281.6-19.2-19.2-12.8-38.4-19.2-64 0-19.2 6.4-38.4 19.2-64 25.6-108.8 32-204.8 19.2-281.6-51.2C76.8 646.4 44.8 556.8 64 441.6c0-12.8 12.8-25.6 19.2-32 32-6.4 44.8 6.4 51.2 19.2 0 6.4 6.4 12.8 0 38.4-12.8 64 6.4 121.6 44.8 166.4 38.4 44.8 96 70.4 153.6 76.8 64 0 121.6-19.2 172.8-64 19.2-19.2 38.4-19.2 57.6 0 12.8 12.8 32 25.6 51.2 38.4 70.4 38.4 140.8 38.4 204.8 6.4 57.6-32 102.4-83.2 115.2-153.6 12.8-89.6-25.6-166.4-51.2-217.6-83.2-140.8-204.8-236.8-326.4-326.4-19.2-12.8-38.4-6.4-44.8 0-83.2 57.6-179.2 134.4-256 230.4-32 38.4-51.2 38.4-64 38.4-6.4 0-19.2-6.4-19.2-12.8 0 0-6.4-12.8 0-19.2 83.2-108.8 192-211.2 345.6-313.6 6.4-6.4 12.8-6.4 25.6-6.4 6.4 0 19.2 0 25.6 6.4 121.6 83.2 211.2 160 288 243.2 83.2 89.6 128 172.8 147.2 268.8 25.6 140.8-38.4 268.8-160 326.4zM396.8 352c0 6.4 6.4 12.8 6.4 19.2l25.6 57.6 19.2-57.6c0-6.4 6.4-12.8 6.4-19.2l6.4-25.6c12.8-51.2 25.6-96 38.4-147.2 6.4-25.6 12.8-38.4 25.6-38.4 19.2 0 25.6 6.4 32 32l19.2 32c12.8 19.2 19.2 38.4 25.6 57.6 12.8 32 32 32 51.2 32h96c12.8 0 32 0 32 19.2 0 6.4 6.4 32-25.6 32H633.6c-38.4 0-51.2-6.4-64-38.4-6.4-25.6-25.6-76.8-32-70.4-6.4 6.4-12.8 44.8-12.8 44.8L512 339.20000000000005c-12.8 57.6-32 115.2-44.8 172.8-6.4 32-12.8 32-25.6 38.4-12.8 0-19.2-6.4-32-25.6l-12.8-38.4-38.4-96c-12.8-32-25.6-44.8-64-44.8h-256c-12.8 0-19.2-6.4-25.6-6.4-6.4-6.4-12.8-12.8-6.4-19.2 0-12.8 6.4-25.6 32-25.6H320c57.6 0 57.6 0 76.8 57.6z"  horiz-adv-x="1024" />

    
    <glyph glyph-name="chongzhiqiaquan" unicode="&#59140;" d="M671.981644 255.993604l191.996802 0c17.750269 0 31.999808 14.374382 31.999808 31.999808L895.978255 479.990215c0 17.749246-14.249539 31.999808-31.999808 31.999808l-191.996802 0c-17.624403 0-31.999808-14.250562-31.999808-31.999808l0-191.996802C639.98286 270.367987 654.358265 255.993604 671.981644 255.993604zM703.981453 447.990407l127.998209 0 0-127.998209-127.998209 0L703.981453 447.990407zM160.022577 127.995395l703.95587 0c17.750269 0 31.999808 14.375405 31.999808 31.999808 0 17.750269-14.249539 31.999808-31.999808 31.999808l-703.95587 0c-17.687848 0-31.999808-14.250562-31.999808-31.999808C128.022769 142.370801 142.334729 127.995395 160.022577 127.995395zM160.022577 255.993604l127.998209 0c17.686824 0 31.999808 14.374382 31.999808 31.999808 0 17.750269-14.31196 31.999808-31.999808 31.999808l-127.998209 0c-17.687848 0-31.999808-14.249539-31.999808-31.999808C128.022769 270.367987 142.334729 255.993604 160.022577 255.993604zM959.977871 703.985802l-895.953695 0c-35.374672 0-63.999616-28.624944-63.999616-63.999616l0-639.987976c0-35.374672 28.624944-63.999616 63.999616-63.999616l895.953695 0c35.373649 0 63.998593 28.624944 63.998593 63.999616L1023.976464 639.986185C1023.976464 675.360857 995.35152 703.985802 959.977871 703.985802zM959.977871-0.001791l-895.953695 0L64.024176 639.986185l895.953695 0L959.977871-0.001791z"  horiz-adv-x="1024" />

    
    <glyph glyph-name="nan" unicode="&#58962;" d="M234.619 566.276c-31.067 154.972 50.12 190.408 50.12 190.408a72.813 72.813 0 0 0 2.184 48.542c70.023-18.203 96.114 4.611 96.114 4.611C362.528 847.457 397.721 896 397.721 896a173.175 173.175 0 0 1 113.225-62.74c237.979-46.48 229.241-214.922 214.436-286.036l-3.398-124.512A237.979 237.979 0 0 0 605.24 225.145v-57.28h1.699l244.653-120.142q55.702-48.542 55.58-103.395 2.064-60.678-17.717-67.474l-811.87-4.733a26.456 26.456 0 0 0-19.053 26.092l-0.607 62.134Q77.463 27.335 116.904 51t241.62 117.594v54.61A238.1 238.1 0 0 0 238.26 422.712z m235.916 12.743c-50.848-9.102-121.356 18.931-135.19 25.242-53.155 23.057-70.266-13.47-68.445-72.814l3.276-112.011c2.913-99.27 96.478-177.786 208.975-177.786s206.305 78.517 208.975 177.786l3.276 125.239c0 2.913-62.134 29.004-119.05 84.22-3.762 4.612-19.78-35.314-101.817-49.876z"  horiz-adv-x="1024" />

    
    <glyph glyph-name="nv" unicode="&#59191;" d="M899.7 113.5c-30.1 34.9-93.2 69.7-93.2 69.7s33.3 9.7 48.2 34.2c0 0-94.1 0.7-94.1 47.9 0 47.3 43.2 35.2 43.2 192.1S738 831.5 513 831.5h-2.1c-225.1 0-290.8-217.2-290.8-374.1s43.2-144.8 43.2-192.1-94.1-47.9-94.1-47.9c14.9-24.5 48.2-34.2 48.2-34.2s-63-34.9-93.2-69.7c-30.1-34.9-60.3-177-60.3-177h896.2c-0.1 0-30.3 142.2-60.4 177z m-260.4 6.7c0-42.9-56.2-163.6-122-163.6h-2.7c-65.8 0-122 120.7-122 163.6 0 42.9 50.7 63 50.7 120.7S346 333.4 346 454.1s89.1 277.6 89.1 277.6 250.8-230.6 250.8-317.8c0-84.5-97.3-115.3-97.3-173 0-57.6 50.7-77.8 50.7-120.7z"  horiz-adv-x="1024" />

    
    <glyph glyph-name="dongtai" unicode="&#58930;" d="M889.018 332.8c2.327 4.655 104.727 134.982 114.037 176.873 2.327 18.618-9.31 37.236-13.964 44.218-34.91 48.873-100.073 104.727-153.6 134.982-30.255 16.29-62.836 25.6-95.418 34.909-34.91 9.309-69.818 13.963-102.4 13.963-6.982 0-16.291-4.654-20.946-9.309-6.982-4.654-9.309-11.636-9.309-20.945 0-6.982 4.655-13.964 9.31-18.618 4.654-6.982 11.636-9.31 20.945-9.31 25.6 0 55.854-4.654 88.436-6.981 27.927-6.982 55.855-18.618 83.782-32.582s128-86.11 130.327-123.345c-4.654-23.273-109.382-165.237-109.382-165.237-6.981-9.309-4.654-16.29-2.327-25.6 18.618-55.854 16.291-144.29 6.982-186.182-6.982-27.927-13.964-53.527-25.6-79.127-11.636-27.927-32.582-65.164-51.2-83.782-11.636 2.328-114.036 48.873-125.673 51.2-6.982 0-13.963 0-18.618-2.327-32.582-16.29-148.945-67.49-188.51-69.818-25.6-2.327-53.526-2.327-81.454 0-27.927 2.327-69.818 11.636-86.109 25.6-13.963 11.636-4.654 141.963-13.963 158.254s-69.819 69.819-83.782 90.764c-18.618 23.273-32.582 46.545-44.218 72.145C102.4 328.145 93.09 356.073 88.436 384c-4.654 30.255-6.981 88.436-4.654 93.09 0 0 158.254 67.492 165.236 76.8 13.964 11.637 44.218 83.783 60.51 109.383s39.563 51.2 60.508 69.818c25.6 20.945 51.2 37.236 83.782 53.527 25.6 13.964 53.527 25.6 83.782 30.255 6.982 2.327 13.964 4.654 18.618 13.963 2.327 4.655 4.655 11.637 2.327 20.946 0 4.654-6.981 13.963-11.636 16.29-4.654 4.655-11.636 4.655-20.945 4.655-37.237-6.982-69.819-18.618-102.4-34.909-30.255-16.29-60.51-34.909-88.437-60.509-25.6-20.945-51.2-48.873-72.145-79.127-18.618-30.255-37.237-76.8-51.2-102.4-34.91-16.291-137.31-55.855-137.31-55.855s-27.927-11.636-37.236-23.272C25.6 502.69 23.273 479.418 23.273 470.109c0-32.582 2.327-65.164 6.982-97.745 9.309-32.582 16.29-62.837 30.254-93.091 13.964-30.255 30.255-58.182 51.2-86.11 18.618-23.272 74.473-79.127 74.473-79.127s-2.327-88.436 6.982-139.636c2.327-16.29 9.309-30.255 13.963-34.91 25.6-25.6 97.746-41.89 130.328-44.217 83.781-2.328 141.963 6.982 190.836 23.272 27.927 9.31 74.473 37.237 86.109 44.219h4.655l134.981-51.2c6.982-2.328 25.6 0 32.582 4.654 6.982 4.655 20.946 25.6 27.927 32.582 27.928 30.255 69.819 132.655 79.128 179.2 6.982 32.582 9.309 62.836 9.309 95.418-2.327 32.582-4.655 65.164-13.964 95.418-2.327 6.982 0 11.637 0 13.964zM593.455 360.727a58.182 58.182 0 1 1 116.363 0 58.182 58.182 0 1 1-116.363 0zM318.836 253.673a29.498 29.498 0 0 1 41.891 0l81.455 81.454c9.309 9.31 9.309 25.6-2.327 34.91l-90.764 67.49c-13.964 9.31-30.255 6.982-39.564-6.982-9.309-13.963-6.982-30.254 6.982-39.563l55.855-41.891-53.528-53.527a29.498 29.498 0 0 1 0-41.891z"  horiz-adv-x="1024" />

    
    <glyph glyph-name="gongkaiboke" unicode="&#58899;" d="M710.426 214.596l-255.12 0c-15.652 0-28.346-12.678-28.346-28.318s12.694-28.318 28.346-28.318l255.12 0c15.656 0 28.344 12.678 28.344 28.318S726.082 214.596 710.426 214.596zM710.426 753.546c-3.524 0-340.162 0-340.162 0-59.972 0-113.38-55.032-113.38-113.382l-32.758-0.786c-59.978 0-108.974-54.246-108.974-112.608l0-566.932c0-58.352 53.402-113.382 113.38-113.382l425.198 0c59.978 0 113.388 55.032 113.388 113.382l28.352 0c59.976 0 113.38 55.03 113.38 113.392L908.85 470.078 908.85 526.1 710.426 753.546zM653.728-96.854 228.532-96.854c-29.752 0-56.69 27.808-56.69 56.694L171.842 526.77c0 28.88 24.244 55.768 53.996 55.768l31.044 0.934 0-510.24c0-58.364 53.408-113.392 113.38-113.392l340.162 0C710.426-69.046 683.48-96.854 653.728-96.854zM852.16 73.23c0-28.882-26.946-56.704-56.692-56.704L370.264 16.526c-29.752 0-56.692 27.82-56.692 56.704L313.572 640.162c0 28.87 26.94 56.692 56.692 56.692l283.464 0c-0.45-65.296 0-114.11 0-114.11 0-58.882 53.002-112.666 113.388-112.666 0 0 30.116 0 85.042 0L852.158 73.23zM767.118 526.77c-30.196 0-56.692 54.844-56.692 84.292 0 0 0 29.816 0 84.916l0 0.044 141.734-169.252L767.118 526.77zM710.426 356.202l-255.12 0c-15.652 0-28.346-12.688-28.346-28.328s12.694-28.318 28.346-28.318l255.12 0c15.656 0 28.344 12.678 28.344 28.318S726.082 356.202 710.426 356.202z"  horiz-adv-x="1024" />

    
    <glyph glyph-name="service" unicode="&#58905;" d="M297.911 482.743l-0.439 0.439-57.051 0.049v-195.072l48.762-0.049v-0.098c48.762 4.218 93.525 45.641 93.525 96.695 0 51.078-34.816 93.818-84.797 98.036zM728.040 288.11l48.762 0.049v195.072l-56.93-0.049-0.366-0.439c-49.981-4.218-84.894-46.933-84.894-98.011 0-51.078 44.642-92.501 93.403-96.695l-0 0.073zM925.355 384.707c0 228.913-185.563 414.476-414.476 414.476-228.913 0-414.476-185.563-414.476-414.476 0-33.304 4.34-65.512 11.752-96.524h100.84c-9.728 30.452-15.092 62.854-15.092 96.524 0 175.055 141.897 316.952 316.952 316.952 175.055 0 316.952-141.897 316.952-316.952 0-161.768-121.295-294.985-277.845-314.295-17.676 13.361-42.13 21.65-69.193 21.65-53.858 0-97.524-32.744-97.524-73.143s43.666-73.143 97.524-73.143c30.403 0 57.222 10.654 75.093 26.99 207.75 22.455 369.493 198.242 369.493 411.941z"  horiz-adv-x="1024" />

    
    <glyph glyph-name="wedding-banquet" unicode="&#58887;" d="M872.337 450.698c-37.948 19.213-86.629 18.607-131.22 0.173-10.731 42.795-35.742 84.249-77.801 105.495-22.63 11.423-47.922 17.438-73.172 17.438-61.791 0-117.481-34.185-145.326-89.311-47.187-93.422-14.993-173.257 19.104-257.722 20.359-50.454 41.41-102.596 50.194-164.992 1.536-10.904 8.373-20.337 18.26-25.184 4.63-2.293 9.65-3.419 14.648-3.419 5.691 0 11.38 1.472 16.465 4.371 54.673 31.199 110.493 45.911 164.473 60.147 87.927 23.15 170.964 45.002 216.203 134.53 40.415 80.050 8.201 178.102-71.829 218.474zM884.842 262.167c-31.761-62.829-94.439-79.315-173.798-100.215-43.271-11.423-91.043-23.972-139.528-45.868-11.813 50.973-29.727 95.369-45.954 135.568-31.956 79.143-55.019 136.347-21.419 202.898 16.465 32.583 49.415 52.79 86.001 52.79 15.102 0 29.641-3.462 43.206-10.342 34.076-17.178 48.464-63.392 47.447-99.091-0.39-12.852 6.728-24.795 18.238-30.636 11.51-5.798 25.314-4.501 35.461 3.505 33.016 25.876 78.667 35.439 107.875 20.597 47.318-23.886 66.379-81.826 42.471-129.207zM464.27 156.067c13.285-12.679 13.782-33.708 1.125-46.992-6.534-6.837-15.296-10.299-24.059-10.299-8.243 0-16.486 3.029-22.933 9.174-45.608 43.487-93.054 78.061-138.943 111.51-104.456 76.112-203.114 148.028-216.16 293.117-5.301 58.978 12.7 116.529 50.692 162.050s91.41 73.517 150.41 78.797c69.796 6.448 134.27-30.809 178.493-79.488 34.833 55.733 91.367 103.764 161.444 110.081 121.894 11.164 229.878-79.315 240.825-201.124 1.644-18.304-11.856-34.443-30.138-36.088-18.347-1.299-34.443 11.856-36.066 30.117-7.659 85.373-83.21 148.939-168.671 140.891-61.986-5.582-111.077-65.426-130.462-118.692-4.392-12.116-15.405-20.554-28.234-21.722-13.046-1.342-25.205 5.236-31.696 16.357-28.558 48.983-87.256 99.177-149.545 93.466-41.324-3.722-78.731-23.28-105.343-55.171s-39.225-72.219-35.504-113.5c10.342-115.1 89.225-172.608 189.095-245.39 45.413-33.061 96.885-70.577 145.673-117.093z"  horiz-adv-x="1024" />

    
    <glyph glyph-name="folder" unicode="&#58900;" d="M926.2518423703702 73.31081481481488H97.74815762962965V591.126528h828.5036847407408m0 103.56265718518519H512l-103.56265718518519 103.56265718518519h-310.6891851851852A103.20463644444443 103.20463644444443 0 0 1-5.8157131851852455 694.6891851851851v-621.3783703703704a103.56265718518519 103.56265718518519 0 0 1 103.56387081481483-103.56265718518519h828.5036847407408A103.56265718518519 103.56265718518519 0 0 1 1029.8157131851854 73.31081481481488V591.126528A103.56265718518519 103.56265718518519 0 0 1 926.2518423703702 694.6891851851851z"  horiz-adv-x="1024" />

    
    <glyph glyph-name="hunqing" unicode="&#58896;" d="M924.025142 710.526437L745.736222 888.815357A24.511232 24.511232 0 0 1 722.082417 895.171502l-243.546579-65.23902c-0.540552-0.149118-1.043824-0.391434-1.584376-0.577831s-1.248861-0.410074-1.863972-0.67103a27.95958 27.95958 0 0 1-2.572282-1.3607c-0.465993-0.279596-0.950626-0.503272-1.397979-0.801507a25.797372 25.797372 0 0 1-3.578826-2.926436 26.095608 26.095608 0 0 1-2.833237-3.429709c-0.298236-0.465993-0.540552-0.950626-0.820148-1.435258a23.131892 23.131892 0 0 1-1.34206-2.516363c-0.242316-0.559192-0.447353-1.137023-0.65239-1.714854a23.635165 23.635165 0 0 1-0.745589-2.553641c-0.149118-0.615111-0.260956-1.211582-0.354154-1.863972a20.280015 20.280015 0 0 1-0.260957-2.609561V804.657022l10.345045-144.103674a356.59648 356.59648 0 1 1 223.993513-224.90686l144.830624-10.400963h1.752133a24.60443 24.60443 0 0 1 4.398974 0.428713c0.447353 0 0.857427 0.223677 1.30478 0.335515a22.60998 22.60998 0 0 1 2.907797 0.857427 15.843762 15.843762 0 0 1 1.528457 0.67103 26.524321 26.524321 0 0 1 2.497722 1.304781c0.465993 0.298236 0.931986 0.577831 1.37934 0.894706a23.430128 23.430128 0 0 1 2.572281 2.106289c0.223677 0.205037 0.484633 0.354155 0.708309 0.577831l0.186397 0.223676a25.163622 25.163622 0 0 1 2.870517 3.522908c0.186397 0.260956 0.298236 0.540552 0.465993 0.820147a25.387298 25.387298 0 0 1 1.621656 3.075554c0.223677 0.540552 0.391434 1.081104 0.596471 1.621656s0.447353 1.118383 0.596471 1.696214l65.239019 243.565219a24.473952 24.473952 0 0 1-6.337504 23.635165z m-95.193049-213.57391l-118.977332 118.902773 163.358505 46.878895z m-268.244208-2.572281l100.784965 100.803605 116.38641-116.405051z m295.830993 214.505896l-159.295046-45.704593 40.765068 164.234571z m-206.528096-32.992305l-117.672551 117.691192 157.300596 42.218965z m-23.131892-46.096027l-97.616213-97.616213-15.098173 210.330599z m-139.928377-175.511602a185.59569 185.59569 0 1 0-131.242267 54.372063 185.819367 185.819367 0 0 0 131.242267-54.372063z m87.383007-349.30835a307.555377 307.555377 0 1 0-99.536104 501.557582l6.113828-85.202159a234.580874 234.580874 0 1 1 40.634589-364.238766c78.137706 78.137706 89.470655 198.140222 34.054768 288.486944l85.742712-6.151107a305.933722 305.933722 0 0 0-67.009793-334.527053z m0 0"  horiz-adv-x="1331" />

    
    <glyph glyph-name="jiqirenshezhi" unicode="&#59234;" d="M881.9 192.29999999999995v110.25c41.4 58.95 61.65 127.8 59.4 199.35-6.3 176.4-160.65 319.5-344.25 319.5-94.95-2.25-171.45-13.5-227.7-33.75C243.8 742.2 152 614.4 150.2 483.9v-3.15c-0.9-29.7-14.85-57.15-37.8-75.15L80 379.95000000000005c-9.45-7.65-11.7-21.15-5.4-31.5l7.2-11.25c20.25-31.05 45.9-81 76.5-148.95 14.85-41.4 25.2-72.9 30.15-92.25l4.5-17.55c9.9-37.35 34.2-67.5 67.5-83.25 17.1-8.1 36-12.15 54.9-12.15 20.7 0 41.4 4.95 59.4 14.85l223.2 119.25c31.95 17.1 58.5 30.15 117 57.6l3.6 1.8c13.05 6.3 23.4 10.8 33.3 15.75 16.65 8.1 38.25 23.85 66.6 48.15 5.4 4.5 10.8 9.45 15.75 13.95v-63.45c-32.4-10.8-54.9-41.85-54.9-76.5 0-4.05 0.45-8.1 0.9-11.7l-202.5-88.65c-5.85-2.7-10.35-7.2-12.6-13.05-2.25-5.85-2.25-12.15 0.45-18 3.6-8.55 12.15-14.4 21.6-14.4 3.15 0 6.3 0.45 9.45 1.8l203.85 89.1c15.3-16.65 36.9-26.55 59.85-26.55 44.55 0 81 36.45 81 81 0 36.9-24.3 68.4-59.4 78.3zM281.15 37.950000000000045c-20.25 9.45-35.55 28.8-41.85 52.65l-4.5 17.55c-4.05 14.85-10.8 36-20.7 65.25 24.75 1.35 46.8 5.4 66.15 12.15 29.7 10.35 54.45 28.35 74.25 53.1 5.85 7.65 7.2 16.65 3.15 24.75-4.05 8.55-13.05 13.95-22.05 13.95-4.5 0-11.7-1.35-17.55-8.55-15.75-18.45-33.75-31.5-53.55-38.7-17.55-6.3-40.5-9.9-67.95-9.9-27.45 59.85-50.4 104.4-69.75 135.45l15.3 12.15c28.8 22.5 47.7 54.45 54 90.45h2.7c15.75 0 40.5-0.45 72.45-0.9 15.3 0 23.85 11.7 23.85 23.4s-7.65 23.85-23.4 23.85c-22.5 0-47.7 0.45-64.35 0.9h-7.65C210.95 609.45 287 706.2 386 742.2c50.85 18.45 122.4 28.8 212.4 31.05 157.95 0 290.7-123.3 296.1-274.05 2.25-62.1-17.1-124.2-54-174.6-44.1-44.1-87.3-80.55-108.45-90.45-10.8-5.4-22.05-10.35-36.9-17.55-58.95-28.35-85.95-41.4-118.8-58.95l-223.2-119.25c-21.6-10.35-49.5-11.25-72-0.45z m579.15 109.8c18.45 0 33.75-15.3 33.75-33.75s-15.3-33.75-33.75-33.75-33.75 15.3-33.75 33.75 15.3 33.75 33.75 33.75zM762.2 494.7c0 96.75-78.75 175.05-175.05 175.05s-175.5-78.3-175.5-175.05 78.75-175.05 175.05-175.05 175.5 78.75 175.5 175.05z m-175.5 127.8c70.65 0 127.8-57.15 127.8-127.8s-57.15-127.8-127.8-127.8S458.9 424.5 458.9 494.7C458.9 565.35 516.5 622.5 586.7 622.5zM586.7 452.4c23.4 0 42.75 18.9 42.75 42.75 0 23.4-18.9 42.75-42.75 42.75-23.4 0-42.75-18.9-42.75-42.75s19.35-42.75 42.75-42.75z"  horiz-adv-x="1024" />

    
    <glyph glyph-name="fenpeiyonghu" unicode="&#58888;" d="M800 620.8C800 774.4 678.4 896 524.8 896S243.2 774.4 243.2 620.8c0-96 51.2-185.6 128-230.4-185.6-64-320-249.6-320-460.8 0-19.2 12.8-32 32-32s32 12.8 32 32c0 224 185.6 416 396.8 416 160 0 288 121.6 288 275.2z m-486.4 0c0 115.2 96 204.8 204.8 204.8s204.8-96 204.8-204.8-89.6-211.2-204.8-211.2-204.8 96-204.8 211.2z m627.2-595.2h-384c-19.2 0-38.4-12.8-44.8-32-6.4-19.2-6.4-38.4 12.8-57.6l51.2-51.2c6.4-6.4 12.8-12.8 25.6-12.8 6.4 0 19.2 6.4 25.6 12.8 12.8 12.8 12.8 38.4 0 51.2l-25.6 25.6h339.2c19.2 0 32 12.8 32 32s-12.8 32-32 32zM537.6 128h384c19.2 0 38.4 12.8 44.8 32 6.4 19.2 6.4 38.4-12.8 57.6L896 275.2c-12.8 12.8-38.4 12.8-51.2 0s-12.8-38.4 0-51.2l25.6-25.6H537.6c-19.2 0-32-12.8-32-32s12.8-38.4 32-38.4z"  horiz-adv-x="1024" />

    
    <glyph glyph-name="fuwu" unicode="&#58906;" d="M836.5 435.9h39.6v-369c0-54-43.8-97.8-97.8-97.8H533c-11 0-20 9-20 20V34c0 11 9 20 20 20h219.5c25.4 0 45.9 20.6 45.9 45.9v76.7H688.6c-11 0-20 9-20 20V415.9c0 11 9 20 20 20h147.9-39.6v1.5c0 156.8-127.7 283.8-285.3 283.8-157.5 0-285.3-127.1-285.3-283.8v-1.5h-76.4v-161.6c0-54 43.8-97.8 97.8-97.8h89.7c11 0 20 9 20 20V415.9c0 11-9 20-20 20H149.9v1.8C149.9 637.2 312.5 799 513 799s363.1-161.7 363.1-361.3v-1.8h-39.6z"  horiz-adv-x="1024" />

    
    <glyph glyph-name="pingjia1" unicode="&#58978;" d="M366.08-76.48000000000002a32 32 0 0 0-24 10.56c-96 106.24-242.304 104.32-244.224 104.96a32 32 0 0 0-1.92 64 414.208 414.208 0 0 0 295.104-126.4 32 32 0 0 0-24.96-53.12z m231.424 0a32 32 0 0 0-23.36 53.76 422.208 422.208 0 0 0 294.144 125.44 32 32 0 1 0-2.56-64 365.824 365.824 0 0 1-244.544-104.96 32 32 0 0 0-23.68-10.24zM532.48 62.78399999999999H431.04a64 64 0 0 0-15.68 1.92 384.064 384.064 0 0 0-280.96 192c-74.048 125.44-90.368 288.128-41.408 406.528a64 64 0 0 0 57.92 39.36h9.92a458.688 458.688 0 0 0 156.16-26.24 469.888 469.888 0 0 0 122.624 140.8 64 64 0 0 0 75.2 3.84l7.424-5.376a462.208 462.208 0 0 0 120.32-140.544 458.368 458.368 0 0 0 160 27.84h10.24a64 64 0 0 0 58.304-39.36c49.28-117.76 32-281.024-41.28-406.528a384.064 384.064 0 0 0-281.344-192 66.176 66.176 0 0 0-16-2.24zM160.896 638.912h-9.216c-41.6-99.84-26.56-240.384 37.44-349.184A320.064 320.064 0 0 1 425.6 127.36000000000001h112a320.064 320.064 0 0 1 236.288 162.304c64 108.8 79.04 249.344 37.44 349.184h-9.6a387.328 387.328 0 0 1-160-32 32 32 0 0 0-41.344 14.08 424.448 424.448 0 0 1-117.504 145.28l-3.2 2.56-2.56-2.24a431.104 431.104 0 0 1-118.08-144.256 32 32 0 0 0-40.96-14.08 387.904 387.904 0 0 1-157.184 31.36v-0.64zM481.92-128a32 32 0 0 0-32 32V96a32 32 0 1 0 64 0v-192a32 32 0 0 0-32-32"  horiz-adv-x="1024" />

    
    <glyph glyph-name="jubao" unicode="&#58939;" d="M868.352-20.48H155.648C75.776-20.48 10.24 45.056 10.24 124.928c0 29.696 8.704 58.368 25.6 82.432L392.192 725.504c22.016 32.256 55.296 53.76 93.696 60.416 38.4 7.168 76.8-1.024 109.056-23.04 14.848-10.24 27.136-22.528 37.376-37.376L988.16 207.872c45.568-66.048 28.672-157.184-37.376-202.24-24.576-17.408-52.736-26.112-82.432-26.112zM512 706.56c-4.096 0-7.68-0.512-11.776-1.024-16.896-3.072-31.232-12.288-40.96-26.624L103.424 161.28c-7.168-10.752-11.264-23.04-11.264-35.84 0-35.328 28.672-63.488 63.488-63.488h712.192c12.8 0 25.6 4.096 35.84 11.264 13.824 9.728 23.552 24.064 26.624 40.96 3.072 16.896-0.512 33.792-10.24 47.616l-355.84 517.12c-4.608 6.656-9.728 11.776-16.384 16.384-10.24 7.168-23.04 11.264-35.84 11.264zM512 185.344m-51.2 0a51.2 51.2 0 1 1 102.4 0 51.2 51.2 0 1 1-102.4 0ZM512 267.776c-28.16 0-51.2 23.04-51.2 51.2v194.56c0 28.16 23.04 51.2 51.2 51.2s51.2-23.04 51.2-51.2v-194.56c0-28.16-23.04-51.2-51.2-51.2z"  horiz-adv-x="1024" />

    
    <glyph glyph-name="xieriji" unicode="&#58995;" d="M730.5728-59.8016H253.44c-68.9152 0-124.7232 57.088-124.7232 127.5392V661.0432c0.6144 70.0416 56.32 126.4128 124.7232 126.4128h406.3744a29.3376 29.3376 0 0 0 0-58.6752H253.44a68.0448 68.0448 0 0 1-67.328-67.7376v-593.3056a69.632 69.632 0 0 1 19.712-48.6912 66.56 66.56 0 0 1 47.616-20.1728h477.1328a66.2016 66.2016 0 0 1 47.5136 20.224 69.2736 69.2736 0 0 1 19.456 48.64V511.1808a28.7232 28.7232 0 1 0 57.3952 0v-443.4432c0.1024-70.2976-55.6032-127.3344-124.3648-127.5392zM509.184 464.6912h-196.096a20.48 20.48 0 1 0 0 40.3456h196.096a20.48 20.48 0 1 0 0-40.3456zM710.144 303.3088H313.856c-13.1072 0-23.7568 9.0112-23.7568 20.1728s10.6496 20.1728 23.7568 20.1728h396.288c13.1072 0 23.7568-9.0112 23.7568-20.1728s-10.6496-20.1728-23.7568-20.1728zM600.1152 464.6912a25.6 25.6 0 0 0-19.2512 9.0112 33.3312 33.3312 0 0 0-1.0752 42.8544l269.6704 303.0528a25.088 25.088 0 0 0 37.8368-0.768 33.4336 33.4336 0 0 0 0.7168-42.5472l-269.7216-303.0016a25.2416 25.2416 0 0 0-18.176-8.6016z"  horiz-adv-x="1024" />

    
    <glyph glyph-name="wenjianjia" unicode="&#59227;" d="M758.51776 64.64 94.20288 64.64l143.04256 273.7664c12.5184 29.312 31.36 70.4 75.06944 70.4l609.10592-0.75776c29.75744 0 53.9392-22.69696 53.9392-50.74432 0 0-104.064-165.76512-129.26464-210.53952C823.26016 106.37312 807.73632 64.64 758.51776 64.64zM260.5056 446.12608l606.97088 0-54.78912 99.59424c-16.19968 26.46016-31.04768 54.7584-75.03872 54.7584l-306.22208 1.01376L431.42656 647.4752c0 28.04224-24.15616 50.7648-53.94432 50.7648l-269.7728 0c-29.78304 0-53.94432-22.72256-53.94432-50.7648l0-532.10112L195.53792 381.44C212.21888 412.09856 230.72256 446.12608 260.5056 446.12608L260.5056 446.12608 260.5056 446.12608M260.5056 446.12608 260.5056 446.12608 260.5056 446.12608z"  horiz-adv-x="1024" />

    
    <glyph glyph-name="bumenhuijikemufenpei" unicode="&#58993;" d="M823.488 785.088H200.512c-17.024 0-29.824-12.8-29.824-29.888v-738.112c0-17.088 12.8-34.176 34.112-34.176h422.4c17.088 0 34.112 12.8 34.112 34.176 0 17.024-12.8 34.112-34.112 34.112H234.688V721.088H793.6V12.8c0-17.088 12.8-34.112 34.112-34.112 17.088 0 34.176 12.8 34.176 34.112V755.2c-8.576 17.088-21.376 29.888-38.4 29.888zM281.6 435.2c4.288-12.8 17.088-21.312 29.888-21.312H691.2c17.088 0 34.112 12.8 34.112 34.112 0 17.088-12.8 34.112-34.112 34.112H388.288l17.024 17.088c12.8 12.8 12.8 34.112 0 46.912-8.512 8.576-29.824 8.576-42.624-4.224L290.112 469.312A32.64 32.64 0 0 1 281.6 448v-12.8zM695.488 320h-384c-17.088 0-34.176-12.8-34.176-34.112 0-17.088 12.8-34.176 34.176-34.176h307.2l-17.088-17.024c-12.8-12.8-12.8-34.176 0-46.976a32.64 32.64 0 0 1 21.312-8.512 32.64 32.64 0 0 1 21.376 8.512L716.8 260.288c12.8 12.8 12.8 34.112 0 46.912-4.288 12.8-12.8 12.8-21.312 12.8z"  horiz-adv-x="1024" />

    
    <glyph glyph-name="tongguo" unicode="&#58914;" d="M1013.116 167.774l-241.615-278.472v-0.614a37.266 37.266 0 0 0-6.143-4.955 7.924 7.924 0 0 1-4.095-2.519 33.478 33.478 0 0 0-14.333-2.662 34.44 34.44 0 0 0-12.286 2.375 23.097 23.097 0 0 0-2.047 2.294 18.428 18.428 0 0 0-8.19 4.545v0.615L589.264 22.826a32.311 32.311 0 0 0 0 48.138 32.761 32.761 0 0 0 47.095 0.348l110.57-110.017 219.092 253.062a32.761 32.761 0 0 0 47.094 1.495 33.949 33.949 0 0 0 0-48.078z m-710.513 34.359h174.045a33.028 33.028 0 1 0 0-65.973H302.603a33.028 33.028 0 1 0 0 65.973z m374.709 395.943h-374.71a33.028 33.028 0 1 0 0 65.973h374.71a33.028 33.028 0 1 0 0-65.973z m0-230.969h-374.71a33.048 33.048 0 1 0 0 65.994h374.71a33.048 33.048 0 1 0 0-65.994z m268.234-98.98a34.44 34.44 0 0 0-34.81 32.987c0 0.675 2.049 1.208 2.049 1.863h-2.048V760.429c0 21.91 2.048 44.31-8.19 56.882-10.238 13.903-32.762 12.08-57.333 12.08H132.653c-24.572 0-47.095 1.823-57.333-12.08-10.238-12.572-8.19-34.973-8.19-56.882v-746.08c0-24.121-2.048-57.23 12.285-67.182a80.47 80.47 0 0 1 47.095-8.293h415.66v-1.003c2.048 0 2.048 0.307 2.048 0.307a32.987 32.987 0 0 0 0-65.973 38.536 38.536 0 0 0-14.333 3.153H126.51a162.456 162.456 0 0 0-38.904 2.252 115.054 115.054 0 0 0-75.761 59.278C-0.441-38.192 1.607-4.244 1.607 32.49V759.262A175.54 175.54 0 0 0 7.75 827.017 115.259 115.259 0 0 0 63.034 886.294a185.491 185.491 0 0 0 20.476 7.27A55.572 55.572 0 0 1 95.796 896H882.07a38.74 38.74 0 0 1 12.285-2.437 185.491 185.491 0 0 0 20.476-7.269 120.255 120.255 0 0 0 53.237-59.277 172.98 172.98 0 0 0 8.19-67.755v-447.85c0-3.255 2.048-6.633 2.048-10.237a32.639 32.639 0 0 0-32.761-33.048z"  horiz-adv-x="1024" />

    
    <glyph glyph-name="butongguo" unicode="&#59006;" d="M837.3 125.2c0.8-1-0.1-0.1 1-0.9 33.1-32.2 66.1-64.5 99.2-96.7 7.6-7.4 26.9-20.8 20.8-40.2-0.9-2.8-4.1-9.1-6-11.5-8.4-11.4-31.2-12.4-43.6-3.8-38 37-76 74-114.1 111-1.1-0.8-0.1 0.1-1-1-3.3-2-5.2-5.1-7.9-7.6-6.3-6.1-12.6-12.1-18.8-18.2-19.8-18.8-39.7-37.6-59.5-56.5-8.9-8.9-17.8-17.9-26.8-26.8-14.3-9.8-35.2-3.2-42.8 7.7-2.1 3.1-1.7 5.5-3 9.6-6.6 21.1 10.5 31 20 40.2 22.8 22.3 45.6 44.7 68.4 67 6.6 6.4 13.2 12.8 19.8 19.1 2.9 2.8 6.5 4.3 8 8.6-3.7 2.2-5.9 5.7-8.9 8.6L723.3 152c-20.2 19.5-40.4 38.9-60.5 58.4-11.6 11.2-27.8 20.9-32.7 38.3-3.8 13.3 9 24.8 15.9 28.3 3.1 1.6 7.3 0.9 9.9 2.9 25.3 0 33.1-12.4 45.6-24.5 22.1-21.1 44.3-42.1 66.5-63.2 5.7-5.5 21-23.8 27.8-25.8l112.1 109.1c14.2 9.7 35.8 4.1 43.6-6.7 6.3-8.6 6.3-25.8 0-34.5-38.1-36.4-76.2-72.8-114.2-109.1zM309.1 252.7h190.2c15 0 27.2-11.7 27.2-26.1 0-14.4-12.2-26.1-27.2-26.1H309.1c-15 0-27.2 11.7-27.2 26.1 0 14.4 12.1 26.1 27.2 26.1z m353.2 313.2H309.1c-15 0-27.2 11.7-27.2 26.1 0 14.4 12.1 26.1 27.2 26.1h353.2c15 0 27.2-11.7 27.2-26.1 0-14.4-12.2-26.1-27.2-26.1z m0-182.7H309.1c-15 0-27.2 11.7-27.2 26.1 0 14.4 12.1 26.1 27.2 26.1h353.2c15 0 27.2-11.7 27.2-26.1 0-14.4-12.2-26.1-27.2-26.1z m217.4-78.3c-15 0-27.2 11.7-27.2 26.1 0 0.5 0.3 0.9 0.3 1.5h-0.6V694.4c0 17.3 0.6 35.1-6.8 45-8.2 11-27.7 9.6-47.5 9.6h-627c-19.8 0-38.5 1.4-46.6-9.6-7.4-9.9-6-27.7-6-45v-590.3c0-19.1-1.5-45.3 9.9-53.1 9.5-6.6 21.4-6.6 37.7-6.6h386.3v-0.8c0.5 0 0.9 0.3 1.4 0.3 15 0 27.2-11.7 27.2-26.1 0-14.4-12.2-26.1-27.2-26.1-4.1 0-7.8 1-11.3 2.5H165.8c-10.1 0-22.2-0.6-30.8 1.8-27.3 7.5-51.6 23.8-62.5 46.9-9.3 19.7-7.9 46.6-7.9 75.6v575c0 19.7-1.2 39.8 5 53.6 8.4 19.1 25.3 38.4 44.6 46.9 5.2 2.3 11.5 4.1 16.9 5.7 3.4 1 7.5 0.1 9.9 1.9h686.9c2.4-1.8 6.5-0.9 9.9-1.9 5.3-1.6 11.6-3.4 16.9-5.7 19.3-8.5 36.2-27.8 44.6-46.9 6.1-13.8 5.8-33.9 5.8-53.6v-354.3c0.9-2.6 1.7-5.3 1.7-8.2 0-14.4-12.1-26.1-27.1-26.1z m0 0"  horiz-adv-x="1024" />

    
    <glyph glyph-name="beifen" unicode="&#59327;" d="M512 220.896c-23.456 0-45.856 6.048-63.104 17.088L67.04 482.016C45.248 495.968 32.48 517.568 32 541.344c-0.448 23.776 11.424 46.048 32.64 61.056L449.12 874.56c34.336 24.288 91.392 24.32 125.792 0L959.36 602.4c21.216-15.04 33.12-37.28 32.64-61.056-0.48-23.776-13.248-45.376-35.04-59.328L575.104 237.984c-17.28-11.04-39.68-17.088-63.104-17.088zM88.768 542.432c0.672-0.288 2.336-2.304 6.048-4.672l381.856-244.032c17.536-11.232 52.992-11.264 70.656 0L929.184 537.76a21.12 21.12 0 0 1 6.08 5.376c-0.672 0.32-2.272 2.432-5.888 4.96L544.928 820.288c-16.384 11.616-49.472 11.584-65.856 0L94.624 548.128a20.64 20.64 0 0 1-5.856-5.696zM512 63.936c-22.528 0-45.088 5.76-63.072 17.248L67.04 325.216C45.248 339.168 32.48 360.8 32 384.544c-0.48 23.776 11.424 46.016 32.64 61.056l46.72 33.056 42.752-41.472-59.52-45.856a20.64 20.64 0 0 1-5.856-5.696c0.672-0.288 2.336-2.304 6.048-4.672L476.64 136.928c18.496-11.808 52.16-11.808 70.656 0L929.152 380.96a21.12 21.12 0 0 1 6.08 5.376c-0.672 0.32-2.272 2.432-5.888 4.96l-59.52 45.856 42.752 41.472 46.72-33.056c21.216-15.04 33.12-37.28 32.64-61.056-0.48-23.776-13.248-45.376-35.04-59.328L575.04 81.152c-17.952-11.456-40.48-17.216-63.04-17.216zM512-92.864c-22.528 0-45.088 5.76-63.072 17.248L67.04 168.416C45.248 182.368 32.48 204 32 227.744c-0.48 23.776 11.424 46.016 32.64 61.056l46.72 33.056 42.752-41.472-59.52-45.856a20.64 20.64 0 0 1-5.856-5.696c0.672-0.288 2.336-2.304 6.048-4.672L476.64-19.872c18.496-11.808 52.16-11.84 70.656 0L929.152 224.16a21.12 21.12 0 0 1 6.08 5.376c-0.672 0.32-2.272 2.432-5.888 4.96l-59.52 45.856 42.752 41.472 46.72-33.056c21.216-15.04 33.12-37.28 32.64-61.056-0.48-23.776-13.248-45.376-35.04-59.328L575.04-75.648c-17.952-11.456-40.48-17.216-63.04-17.216z"  horiz-adv-x="1024" />

    
    <glyph glyph-name="kehu1" unicode="&#58892;" d="M575.488 171.52c-20.992-43.52-48.128-105.472-48.128-133.12 0-38.912 71.68-66.048 71.68-66.048s71.68 27.136 71.68 66.048c0 27.648-27.136 89.088-48.128 133.12-14.336-7.68-32.256-7.68-47.104 0z m23.552 75.776c-11.264-11.264-11.264-29.184 0-40.448s29.184-11.264 40.448 0 11.264 29.184 0 40.448-29.184 11.264-40.448 0z m220.672 47.616c-14.848 10.752-35.84 7.68-46.592-7.68-10.24-14.336-7.68-34.304 6.144-45.568 73.728-55.808 116.736-143.36 116.736-236.032 0-18.432 14.848-33.28 33.28-33.792 18.432 0 33.28 14.848 33.28 33.792 0.512 114.176-52.736 221.184-142.848 289.28zM844.8 548.352c0 135.68-110.08 245.248-245.248 245.248S354.304 684.032 354.304 548.864c0-82.944 41.472-159.744 110.592-205.312-137.728-55.808-227.84-188.928-228.352-336.896 0-18.432 14.848-33.28 33.28-33.28s33.28 14.848 33.28 33.28c0 163.328 132.608 295.936 296.448 296.448 135.168-0.512 245.248 109.568 245.248 245.248z m-423.936 0c-1.536 98.816 77.312 179.712 176.128 181.248 98.816 1.536 179.712-77.312 181.248-176.128V547.84c-1.536-98.816-82.944-177.152-181.248-176.128-96.768 2.048-174.592 79.872-176.128 176.64zM312.832 340.992h1.024c17.408 0 31.232 13.824 31.232 31.232 0 16.384-12.8 30.208-29.696 31.232-62.976 15.872-107.008 72.704-107.52 137.728 0 60.416 37.888 112.128 91.136 132.608 9.728 22.528 22.528 43.52 37.376 62.464-80.896-5.12-150.016-60.416-173.568-138.24-25.088-82.944 7.68-172.544 80.384-220.16-110.08-44.544-182.272-151.04-182.784-269.824 0-14.848 11.776-26.624 26.624-26.624 14.848 0 26.624 11.776 26.624 26.624 0.512 117.76 86.528 214.528 199.168 232.96z"  horiz-adv-x="1024" />

    
    <glyph glyph-name="weifenxiaopcjiemianzhuanhuan" unicode="&#58937;" d="M569.6 696.8 569.6 812 454.4 812l0-115.2L0 696.8l0-115.2 57.6 0 0-576 358.4 0L192-167.2 230.4-212l275.2 224 0 0 275.2-224 38.4 44.8-217.6 179.2 364.8 0 0 576L1024 588 1024 696.8 569.6 696.8zM908.8 69.6 115.2 69.6l0 512 793.6 0L908.8 69.6zM281.6 184.8 281.6 357.6l172.8 0c0 83.2-70.4 147.2-153.6 147.2-83.2 0-153.6-70.4-153.6-153.6C153.6 268 198.4 184.8 281.6 184.8zM339.2 127.2C428.8 127.2 512 216.8 512 300L339.2 300 339.2 127.2zM793.6 472.8 627.2 472.8l0-57.6 172.8 0L800 472.8zM793.6 357.6 627.2 357.6 627.2 300l172.8 0L800 357.6zM793.6 242.4 627.2 242.4l0-57.6 172.8 0L800 242.4z"  horiz-adv-x="1024" />

    
    <glyph glyph-name="iconfontweixin" unicode="&#58960;" d="M751.072731 342.548353m-44.809032 0a30.227 30.227 0 1 0 89.618065 0 30.227 30.227 0 1 0-89.618065 0ZM991.768405 340.677542m-44.809032 0a30.227 30.227 0 1 0 89.618065 0 30.227 30.227 0 1 0-89.618065 0ZM313.974534 641.285117m-54.86427 0a37.01 37.01 0 1 0 109.72854 0 37.01 37.01 0 1 0-109.72854 0ZM608.680605 638.994782m-54.86427 0a37.01 37.01 0 1 0 109.72854 0 37.01 37.01 0 1 0-109.72854 0ZM1226.371344 371.382855c-19.360372 39.6013-47.140875 75.163012-82.567687 105.697847-63.746915 54.939873-146.182667 88.326879-235.02098 95.767132-5.888162 30.270964-15.944882 59.777001-30.167195 88.21718-23.119783 46.232153-56.109501 87.659791-98.051537 123.134041C695.323458 856.293462 582.302469 896.000013 462.32153 896.000013S229.319603 856.293462 144.077634 784.197572c-41.942037-35.47425-74.931755-76.901888-98.051537-123.134041C21.878999 612.776747 9.635713 561.434701 9.635713 508.463479c0-52.972705 12.243286-104.314751 36.391866-152.601535 17.794939-35.583948 41.448392-68.314243 70.520081-97.682415 0 0-0.004447-0.008895-0.004447-0.008895s27.740478-28.561737 33.689419-34.034822l-29.308875-113.393076c-3.228705-12.53384 0.904275-25.8163 10.673406-34.306105 6.260249-5.440472 14.142262-8.311915 22.147317-8.374176 4.487278-0.035578 9.014581 0.813847 13.312109 2.591266l159.370253 66.280367c16.484482-2.609055 16.484482-2.609055 29.233272-5.238863 0 0.002965 0 0.004447 0 0.00593 34.528467-7.102262 70.271034-10.775692 106.661418-10.775692 17.290917 0 34.430628 0.855355 51.368729 2.488979 1.095506-2.394104 2.214732-4.782279 3.376947-7.158594 19.360372-39.6013 47.140875-75.16153 82.567687-105.696364 71.928377-61.991733 167.645107-96.56912 269.515352-97.360731 40.825777-0.317237 80.735419 4.834163 118.60822 15.013924l124.783971-53.884392c3.551872-1.535784 7.306836-2.299229 11.041045-2.327395 6.660502-0.051885 13.255777 2.236968 18.533183 6.679773 8.237794 6.936231 11.84748 17.932804 9.324406 28.401636l-21.890858 90.799551c3.735692 2.880337 7.296459 5.725096 10.594838 8.479428 35.898221 29.978928 64.227218 65.10481 84.201311 104.399249 20.87392 41.070375 31.637753 84.832821 31.990569 130.070272C1256.688263 286.06973 1246.604859 329.992277 1226.371344 371.382855zM462.32153 181.373998c-37.71863 0-74.197958 4.485795-108.739767 12.814016-0.001482-0.045955-0.002965-0.09191-0.00593-0.136382-5.994896 1.550609-12.014993 3.239082-18.103282 5.118787-8.97159 5.419718-20.309119 6.657537-30.736443 2.345184l-100.593883-41.596634 5.287783 20.529999c2.053148 6.522637 7.902767 24.320541 11.098859 39.448611 0.695254 3.295414 1.151838 6.691632 1.30008 10.089333 0.72342 6.527084-0.471409 12.937057-3.199057 18.58062-0.137865 0.302413-0.297966 0.595932-0.446208 0.89538-0.034096 0.065226-0.063744 0.131935-0.099322 0.197162-0.834601 1.657343-1.80262 3.262801-2.960388 4.785244-8.506111 11.192252-22.139905 16.96775-32.630973 25.911175-12.805122 10.91504-23.024908 20.79387-35.794452 34.154898-48.117788 54.305398-76.612816 121.401095-76.612816 193.952087C70.082767 688.820315 246.041272 835.551477 462.32153 835.551477c189.449985 0 347.947094-112.586641 384.359714-261.737107-91.554102-4.831198-177.125167-37.195336-243.387744-92.53398-35.898221-29.978928-64.227218-65.106292-84.201311-104.400731-20.87392-41.071858-31.637753-84.834303-31.990569-130.071754-0.168996-21.809326 2.110962-43.308826 6.759824-64.369531C483.456356 181.740155 472.940086 181.373998 462.32153 181.373998zM1102.414561 48.983743c-8.84262-7.303871-20.260199-11.93346-27.481055-21.133343-0.979878-1.25116-1.807067-2.570512-2.521592-3.937301-0.047437-0.087463-0.090427-0.176408-0.136382-0.26387-0.108216-0.213468-0.228292-0.423971-0.332062-0.640404-2.345184-4.66072-3.424384-9.982599-2.904056-15.424554 0.078568-2.82697 0.415077-5.656905 0.951712-8.405307 2.462295-12.622785 7.09485-27.498844 8.721062-32.955622l4.135945-17.15157-83.147312 35.904151c-8.62174 3.725315-18.070669 2.840312-25.607279-1.555056-34.154898-9.966293-65.728907-13.678266-104.498571-13.377335-180.736336 1.405332-326.821163 125.363597-325.647089 276.324095 1.172592 150.960499 149.166774 272.634358 329.903109 271.230509 180.736336-1.405332 326.819681-125.363597 325.645606-276.324095C1198.911043 166.022083 1161.835782 98.059172 1102.414561 48.983743z"  horiz-adv-x="1257" />

    
    <glyph glyph-name="huiyuan" unicode="&#59058;" d="M920 143.5c-21.944 0-39.762 17.673-39.998 39.562-0.94 4.139-10.167 19.327-40.915 38.314-34.179 21.105-81.594 38.626-126.835 46.868l-25.482 4.642c-19.014 3.463-32.832 20.026-32.832 39.353l0 63.468c0 12.52 5.861 24.317 15.84 31.879l12.279 9.306c10.16 7.7 29.736 25.396 46.691 57.393 21.182 39.973 31.921 89.591 31.921 147.477 0 40.346-11.378 72.825-32.905 93.927C705.864 737.153 672.059 748.5 630 748.5c-22.092 0-40 17.909-40 40s17.908 40 40 40c63.431 0 116.603-19.255 153.765-55.683 37.228-36.492 56.904-88.727 56.904-151.057 0-71.081-13.872-133.302-41.231-184.934-21.541-40.65-46.891-66.146-65.5-80.93l0-10.352c52.339-10.468 106.853-31.197 147.182-56.101C932.723 257.579 960 220.944 960 183.5 960 161.408 942.092 143.5 920 143.5zM400.97-51c-99.748 0-174.479 9.451-228.461 28.895C72.006 14.094 57 81.418 57 118.327c0 44.132 32.422 81.618 96.366 111.419 37.154 17.315 82.641 30.726 130.923 38.787-37.021 30.469-63.32 73.342-78.338 127.809-14.751 53.501-16.643 110.636-16.643 154.435 0 68.061 19.088 121.979 56.735 160.258 19.115 19.436 42.689 34.228 70.068 43.967C342.226 764.29 371.994 769 404.589 769l6.854 0c32.6 0 62.372-4.709 88.49-13.998 27.383-9.738 50.961-24.53 70.078-43.965 37.654-38.279 56.746-92.198 56.746-160.261 0-43.788-1.894-100.913-16.663-154.436-15.022-54.443-41.33-97.315-78.362-127.807 48.272-8.061 93.758-21.472 130.91-38.79C726.58 199.943 759 162.458 759 118.327c0-35.053-14.195-67.2-41.053-92.965-20.106-19.29-47.72-35.038-82.07-46.805C578.614-41.056 499.581-51 400.97-51zM404.589 689c-45.128 0-79.281-11.46-101.509-34.061-22.41-22.786-33.772-57.832-33.772-104.163 0-38.758 1.564-88.92 13.765-133.17 12.282-44.542 34.198-77.106 65.139-96.787l0.134-0.086c11.836-7.595 18.903-20.511 18.903-34.55l0-51.299c0-21.018-15.765-38.539-36.671-40.757-53.557-5.645-104.48-18.746-143.417-36.894C146.011 138.058 137 122.646 137 118.327c0-11.435 3.112-21.364 9.514-30.358 9.96-13.992 27.827-25.703 53.104-34.808C244.758 36.903 310.621 29 400.97 29c89.771 0 160.084 8.492 208.983 25.241 22.933 7.855 41.125 17.831 52.61 28.851C673.471 93.555 679 105.409 679 118.327c0 4.319-9.011 19.729-50.155 38.906-38.931 18.147-89.838 31.248-143.347 36.891-20.934 2.21-36.715 19.733-36.715 40.761l0 51.299c0 14.07 7.076 26.992 18.928 34.565 31.038 19.756 52.976 52.335 65.266 96.871 12.214 44.266 13.78 94.413 13.78 133.156 0 46.33-11.364 81.374-33.778 104.16C490.745 677.539 456.583 689 411.443 689L404.589 689z"  horiz-adv-x="1024" />

    
    <glyph glyph-name="xuexiao" unicode="&#59259;" d="M958.279183 566.285626c0 46.471404-26.677593 86.216617-64.964594 96.637967l-363.169323 99.289354c-6.122441 1.585101-12.317537 2.416026-18.574031 2.416026-6.253424 0-12.443403-0.830925-18.827811-2.489704l-362.918613-99.214652c-38.288025-10.426467-64.964594-50.170656-64.964594-96.637967s26.677593-86.296435 64.964594-96.643084l74.665537-20.472264 0-279.571347c0-87.720877 84.745103-165.324326 307.146379-165.324326 222.402299 0 307.147402 77.523631 307.147402 165.324326l0 279.577486 74.665537 20.470217C931.60773 479.994308 958.279183 519.818315 958.279183 566.285626L958.279183 566.285626zM762.879887 169.597909c0-36.491099-83.789335-99.209536-251.307629-99.209536-167.516248 0-251.234975 62.712297-251.234975 99.209536L260.337283 433.983391l232.673224-63.694671c6.122441-1.509377 12.314467-2.347464 18.567891-2.347464 6.253424 0 12.44545 0.832971 18.827811 2.491751l232.476749 63.550385 0-264.385483L762.879887 169.597909 762.879887 169.597909zM517.957689 434.887994c-2.167363-0.602727-4.27742-0.904603-6.379291-0.904603s-4.211928 0.301875-6.379291 0.904603l-362.797863 99.136881c-12.694113 3.477194-21.698185 16.84362-21.698185 32.263821 0 15.33629 8.998955 28.714995 21.698185 32.265868l362.792747 99.055017c2.169409 0.604774 4.27742 0.906649 6.379291 0.906649s4.211928-0.301875 6.379291-0.906649l362.853122-99.133811c12.700253-3.557012 21.698185-16.925485 21.698185-32.265868 0-15.416108-8.992815-28.794813-21.698185-32.265868L517.957689 434.887994 517.957689 434.887994zM874.555339 400.959254l0-297.55186c0-18.288528 12.44545-33.092699 27.952632-33.092699 15.505136 0 27.954679 14.731516 27.954679 33.092699L930.46265 400.959254c0 18.288528-12.443403 33.024138-27.954679 33.024138C886.999766 433.983391 874.555339 419.32146 874.555339 400.959254L874.555339 400.959254z"  horiz-adv-x="1024" />

    
    <glyph glyph-name="kefu" unicode="&#58891;" d="M847.4 440.6v59.7c0 149.2-119.4 268.6-268.6 268.6H444.5c-149.2 0-268.6-119.4-268.6-268.6v-67.1c-54.1-9.1-48-44.8-48-111.9v-74.6c0-59.7-6-116.2 48-118.4h37.3c14.9 0 29.8 14 37.3 21.5L437 60.3c0-37.3 37.3-67.1 74.6-67.1 44.8 0 74.6 29.8 74.6 74.6s-29.8 74.6-74.6 74.6c-14.9 0-29.8-7.5-37.3-14.9L288 216.8V366c0 29.8-14.9 52.2-37.3 59.7v74.6c0 104.4 89.5 194 194 194H579c104.4 0 194-89.5 194-194v-74.6c-22.4-14.9-37.3-37.3-37.3-59.7v-149.2c0-37.3 37.3-88.6 74.6-88.6h37.3c56.6 9.8 48.7 66.2 48.7 125.9v74.6c-0.1 59.7-0.1 96.3-48.9 111.9z"  horiz-adv-x="1024" />

    
    <glyph glyph-name="fengge" unicode="&#58898;" d="M512 800C229.696 800 0 570.304 0 288c0-90.368 30.304-174.496 85.344-236.896 55.264-62.624 129.152-97.12 208.128-97.12 81.568 0 161.536 36.832 231.264 106.592l2.272 2.496c65.792 81.472 132.896 121.056 205.088 121.056 46.72 0 89.216-15.872 126.688-29.92 30.336-11.328 56.576-21.12 81.216-21.12C1024 133.088 1024 241.664 1024 288c0 282.304-229.696 512-512 512z m428-602.912c-13.088 0-35.296 8.288-58.784 17.088-40.48 15.136-90.848 33.952-149.12 33.952-92.352 0-175.328-46.944-253.76-143.456-57.184-56.704-121.056-86.688-184.832-86.688-60.352 0-117.216 26.784-160.128 75.456C88.64 144.128 64 213.216 64 288 64 535.04 264.96 736 512 736s448-200.96 448-448c0-27.328-1.952-90.912-20-90.912zM800.704 379.936m-64 0a64 64 0 1 1 128 0 64 64 0 1 1-128 0ZM457.024 582.624m-64 0a64 64 0 1 1 128 0 64 64 0 1 1-128 0ZM672.704 555.936m-64 0a64 64 0 1 1 128 0 64 64 0 1 1-128 0ZM291.392 443.936m-64 0a64 64 0 1 1 128 0 64 64 0 1 1-128 0ZM278.4 197.248m-96 0a96 96 0 1 1 192 0 96 96 0 1 1-192 0Z"  horiz-adv-x="1024" />

    
    <glyph glyph-name="AD-" unicode="&#59028;" d="M843.2 761.6H198.4c-35.2 0-64-28.8-64-64V128c0-35.2 28.8-64 64-64h644.8c35.2 0 64 28.8 64 64V697.6c0 35.2-28.8 64-64 64z m0-601.6c0-17.6-14.4-32-32-32H230.4c-17.6 0-32 14.4-32 32V665.6c0 17.6 14.4 32 32 32h580.8c17.6 0 32-14.4 32-32V160zM721.6 40H320c-17.6 0-32-14.4-32-32s14.4-32 32-32h401.6c17.6 0 32 14.4 32 32s-14.4 32-32 32zM435.2 534.4c-1.6 4.8-6.4 8-11.2 8h-35.2c-4.8 0-9.6-3.2-11.2-8l-92.8-243.2c-1.6-3.2-1.6-8 1.6-11.2 1.6-3.2 6.4-4.8 9.6-4.8h33.6c4.8 0 9.6 3.2 11.2 8l24 65.6h84.8l25.6-65.6c1.6-4.8 6.4-8 11.2-8h36.8c4.8 0 8 1.6 9.6 4.8 1.6 3.2 3.2 8 1.6 11.2l-99.2 243.2z m-52.8-136l20.8 56c1.6 3.2 1.6 6.4 3.2 9.6 1.6-4.8 3.2-8 4.8-12.8l19.2-51.2h-48zM720 518.4c-11.2 9.6-25.6 16-40 20.8-11.2 3.2-25.6 3.2-46.4 3.2h-83.2c-6.4 0-12.8-4.8-12.8-12.8v-243.2c0-6.4 4.8-12.8 12.8-12.8h88c16 0 30.4 1.6 41.6 4.8 12.8 3.2 24 8 33.6 14.4 9.6 6.4 17.6 14.4 25.6 25.6 8 11.2 14.4 24 17.6 38.4 4.8 16 6.4 33.6 6.4 52.8 0 22.4-3.2 43.2-9.6 62.4-8 19.2-19.2 33.6-33.6 46.4z m-20.8-152c-3.2-11.2-8-19.2-14.4-25.6-4.8-4.8-9.6-8-17.6-9.6-8-3.2-19.2-3.2-33.6-3.2h-40V489.6h38.4c22.4 0 32-1.6 36.8-4.8 9.6-3.2 17.6-11.2 24-22.4 6.4-11.2 11.2-28.8 11.2-52.8 1.6-16 0-30.4-4.8-43.2z"  horiz-adv-x="1024" />

    
    <glyph glyph-name="html" unicode="&#58882;" d="M913.4 831.2H110.6c-12 0-23.5-4.8-31.9-13.3S65.5 798 65.5 786v-803.1c0-12 4.7-23.5 13.2-31.9 8.5-8.5 19.9-13.2 31.9-13.3h802.8c12 0 23.5 4.8 31.9 13.3 8.5 8.5 13.2 20 13.2 31.9V786c0 12-4.7 23.5-13.2 31.9-8.4 8.5-19.9 13.3-31.9 13.3z m-8.5-837.9H117.1V777.7h787.8v-784.4z m0 0M212.5 384.8l150.4 150.4c9.4 9.4 9.4 23.5 0 32.9-9.4 9.4-23.5 9.4-32.9 0L163.2 401.2c-4.7-4.7-7-9.4-7-16.4 0-7.1 2.4-11.8 7-16.5L330 201.5c9.4-9.4 23.5-9.4 32.9 0 9.4 9.4 9.4 23.5 0 32.9L212.5 384.8z m365.3 249c-11.7 2.3-25.8-4.7-28.2-16.4L427.4 163.9c-2.3-11.8 4.7-25.8 16.5-28.2 11.7-2.3 25.8 4.7 28.2 16.5l122.2 453.5c4.7 11.7-2.4 25.8-16.5 28.1z m283.1-232.6L694.1 568c-9.4 9.4-23.5 9.4-32.9 0-9.4-9.4-9.4-23.5 0-32.9l150.4-150.4-150.4-150.3c-9.4-9.4-9.4-23.5 0-32.9 9.4-9.4 23.5-9.4 32.9 0l166.8 166.8c4.7 4.7 7 11.8 7 16.5 0 7-2.3 11.7-7 16.4z m0 0"  horiz-adv-x="1024" />

    
    <glyph glyph-name="xinjian" unicode="&#59264;" d="M855.307462 738.330004H168.103114c-57.510832 0-104.121406-46.610574-104.121406-104.121405V134.421758c0-57.510832 46.610574-104.122429 104.121406-104.122429h687.204348c57.512878 0 104.123452 46.611597 104.123452 104.122429V634.208599c0 57.510832-46.610574 104.121406-104.123452 104.121405z m41.649585-562.25866c0-57.510832-25.786293-83.297125-83.297124-83.297125H230.576981c-57.511855 0-104.122429 25.786293-104.122429 83.297125V592.559013c0 57.510832 25.786293 83.297125 83.298148 83.297125h603.907223c57.510832 0 83.297125-25.786293 83.297124-83.297125v-416.487669z m-325.503469 241.717203c-41.24231-41.526789-78.254272-41.526789-119.496581 0l-194.21226 195.594747H168.102091l268.907473-270.798542c41.261753-41.567721 108.127649-41.567721 149.391448 0l268.905426 270.798542h-89.641623l-194.211237-195.594747z"  horiz-adv-x="1024" />

    
    <glyph glyph-name="caiwu" unicode="&#58883;" d="M896 642.496v29.696C896 760.32 824.256 832 736 832H224.576C136 832 64 760.32 64 672.192v-576.384C64 7.68 131.584-64 214.656-64H809.28C892.352-64 960 7.68 960 95.808V512.192c0 53.824-25.408 101.312-64 130.304z m0-546.688c0-52.8-38.848-95.808-86.656-95.808H214.656C166.848 0 128 43.008 128 95.808V672.192c0 52.8 43.328 95.808 96.576 95.808H736c52.928 0 96-43.008 96-95.808v-2.624c-7.488 1.216-14.912 2.432-22.656 2.432H288c-17.664 0-32-14.336-32-32s14.336-32 32-32h521.344C857.152 608 896 564.992 896 512.192v-416.384zM672 256c17.664 0 32 14.336 32 32s-14.336 32-32 32H544v23.488c9.856 3.52 19.264 8.512 27.84 15.36l120.128 96.128c13.824 11.072 16 31.168 4.992 44.992-10.944 13.76-31.04 15.872-44.992 4.992L531.84 408.896c-11.52-9.28-28.16-9.28-39.68 0l-120.128 96.128c-13.76 10.944-33.92 8.768-44.992-4.992-11.008-13.824-8.768-33.92 4.992-44.992l120.128-96.128c8.576-6.912 17.984-11.904 27.84-15.424V320H352c-17.664 0-32-14.336-32-32s14.336-32 32-32h128v-64H352c-17.664 0-32-14.336-32-32s14.336-32 32-32h128v-32c0-17.664 14.336-32 32-32s32 14.336 32 32v32h128c17.664 0 32 14.336 32 32s-14.336 32-32 32H544v64h128z"  horiz-adv-x="1024" />

    
    </font>
</defs>
</svg>
